Статистика раздачи
Размер:  4,14 GB   |    Зарегистрирован:  11 месяцев   |    Скачан:  0 раз
DL-List: Нет
Сидов:  26  [  0 KB/s  ]   Личеров:  1  [  0 KB/s  ]  
 
     
 
 

Гость ®

Пол:
Не указан

12 часов
Год выпуска: 2019
Производство: Триикс Медиа
Жанр: детектив, криминал, боевик
Продолжительность: ~00:48:00 серия
Субтитры: нет
Режиссёр: Алан Дзоциев
В ролях: Эдуард Флёров, Сергей Интяков, Александр Пашков, Юрий Батурин, Алексей Титков, Денис Моисеев, Оксана Сырцова, Андрей Смелов, Екатерина Зорина
Описание: На глазах оперативника уголовного розыска Юрия Савостьянова неизвестный киллер убил его невесту Елену. Следствие так и не нашло виновных. Ровно год спустя в здании полиции неизвестный ликвидирует крупного питерского криминального авторитета Алексея Чухонца. Поиски убийцы выводят Савостьянова на бизнесмена Бориса Комаровского по прозвищу Ладога, который, скорее всего, нанял киллера для расправы над Чухонцем.

Реклама: Нет.
Кинопоиск
Все раздачи сериала
Sample
Качество: WEBRip 1080p - ExKinoRay
Формат: MKV
Видео кодек: H.264
Аудио кодек: AC3
Видео: MPEG4 AVC Video, H264, 16:9, 1920x1080, 25 fps, ~6000 kbps, 0.116 bit/pixel
Аудио: AC3 Dolby Digital, 48.0 kHz, 2/0 (L,R) ch, 192 kbps

MI

General
Unique ID : 180047674054342553732301958146723780907 (0x8773EBB232FAF0FFBC2A5296B811992B)
Complete name : D:\Dvenadtsat.chasov.2019.WEB-DL.(1080p).ExKinoRay\Dvenadtsat.chasov.(01.seriya.iz.02).2019.WEB-DL.(1080p).ExKinoRay.mkv
Format : Matroska
Format version : Version 4 / Version 2
File size : 2.07 GiB
Duration : 48 min 0 s
Overall bit rate mode : Constant
Overall bit rate : 6 161 kb/s
Encoded date : UTC 2019-06-01 02:51:27
Writing application : mkvmerge v7.8.0 ('River Man') 32bit built on Mar 27 2015 16:18:02
Writing library : libebml v1.3.1 + libmatroska v1.4.2
Video
ID : 1
Format : AVC
Format/Info : Advanced Video Codec
Format profile : High@L4.1
Format settings : 2 Ref Frames
Format settings, CABAC : No
Format settings, ReFrames : 2 frames
Codec ID : V_MPEG4/ISO/AVC
Duration : 48 min 0 s
Bit rate mode : Constant
Bit rate : 6 000 kb/s
Width : 1 920 pixels
Height : 1 080 pixels
Display aspect ratio : 16:9
Frame rate mode : Constant
Frame rate : 25.000 FPS
Standard : PAL
Color space : YUV
Chroma subsampling : 4:2:0
Bit depth : 8 bits
Scan type : Progressive
Bits/(Pixel*Frame) : 0.116
Stream size : 2.00 GiB (97%)
Default : Yes
Forced : No
Color range : Limited
Color primaries : BT.709
Transfer characteristics : BT.709
Matrix coefficients : BT.709
Audio
ID : 2
Format : AC-3
Format/Info : Audio Coding 3
Codec ID : A_AC3
Duration : 48 min 0 s
Bit rate mode : Constant
Bit rate : 192 kb/s
Channel(s) : 2 channels
Channel positions : Front: L R
Sampling rate : 48.0 kHz
Frame rate : 31.250 FPS (1536 SPF)
Bit depth : 16 bits
Compression mode : Lossy
Stream size : 65.9 MiB (3%)
Language : Russian
Service kind : Complete Main
Default : Yes
Forced : No

Скриншоты


[opentorrent.pro].t3332.torrent 
Торрент: Зарегистрирован [ 2019-06-03 16:38 ] · 314F6F2B139791698A60B5B3CD5209D061A2DB24

Скачать .torrent

Скачать

21 KB

Статус: проверено
Скачан: 0 раз
Размер: 4,14 GB  ·  Тип торрента
terms.php
Показать сообщения:    

Текущее время: 02-Июн 23:44

Часовой пояс: UTC ± 0



Вы не можете начинать темы
Вы не можете отвечать на сообщения
Вы не можете редактировать свои сообщения
Вы не можете удалять свои сообщения
Вы не можете голосовать в опросах
Вы не можете прикреплять файлы к сообщениям
Вы можете скачивать файлы