Статистика раздачи
Размер:  286 MB   |    Зарегистрирован:  1 год 2 месяца   |    Скачан:  0 раз
DL-List: Нет
Сидов:  7  [  0 KB/s  ]  
 
     
 
 

Гость ®

Пол:
Не указан

Короче
Год выпуска: 2019
Производство: Комедия, скетчком
Жанр: Россия, СУПЕР продакшн, Киностудия "Yellow, Black and White"
Продолжительность: 1 х ~ 00:25:00
Субтитры: Нет
Режиссёр: Илья Фарфель
В ролях: Борис Дергачев, Константин Шелягин, Дария Гомес, Николай Сороканов, Павел Демьянов, Дмитрий Овчинников, Денис Шаблий, Александра Кузенкина, Александр Якин, Марина Богатова
Описание: Комедия по-быстрому. Голая правда о тридцатилетних, о которой не говорят вслух. Но не главный герой, этот парень говорит честно, быстро и вообще не думает. Он живёт от зарплаты до зарплаты, ходит в магазин со своим пакетом, хвастается айфоном перед друзьями и, конечно, безнадёжно влюблён.
Релиз группа
Реклама: Сторонней рекламы нет!
Все раздачи сериала Короче


Качество: WEBRip
Формат: AVI
Видео кодек: XviD
Аудио кодек: AC3
Видео: 720x400 (1.80:1), 25 fps, XviD build 73 ~1600 kbps avg, 0.222 bit/pixel
Аудио: 48 kHz, AC3 Dolby Digital, 2/0 (L,R) ch, ~192 kbps

Скриншоты

MediaInfo

General
Complete name : C:\Users\user\Downloads\Video\01. Короче.2019.WEB-DLRip. Files-x..avi
Format : AVI
Format/Info : Audio Video Interleave
File size : 286 MiB
Duration : 22mn 14s
Overall bit rate : 1 802 Kbps
Writing application : VirtualDubMod 1.5.10.3 | www.virtualdub-fr.org || (build 2550/release)
Writing library : VirtualDubMod build 2550/release
Video
ID : 0
Format : MPEG-4 Visual
Format profile : Advanced Simple@L5
Format settings, BVOP : 1
Format settings, QPel : No
Format settings, GMC : No warppoints
Format settings, Matrix : Custom
Codec ID : XVID
Codec ID/Hint : XviD
Duration : 22mn 14s
Bit rate : 1 600 Kbps
Width : 720 pixels
Height : 400 pixels
Display aspect ratio : 16:9
Frame rate : 25.000 fps
Color space : YUV
Chroma subsampling : 4:2:0
Bit depth : 8 bits
Scan type : Progressive
Compression mode : Lossy
Bits/(Pixel*Frame) : 0.222
Stream size : 254 MiB (89%)
Writing library : XviD 73
Audio
ID : 1
Format : AC-3
Format/Info : Audio Coding 3
Mode extension : CM (complete main)
Codec ID : 2000
Duration : 22mn 14s
Bit rate mode : Constant
Bit rate : 192 Kbps
Channel(s) : 2 channels
Channel positions : Front: L R
Sampling rate : 48.0 KHz
Bit depth : 16 bits
Compression mode : Lossy
Stream size : 30.5 MiB (11%)
Alignment : Split accross interleaves
Interleave, duration : 40 ms (1.00 video frame)
Interleave, preload duration : 500 ms

Внимание! Раздача ведётся путём добавления новых серий!

Внимание! Раздача ведётся путём добавления новых серий
Внимание! Раздача ведётся путём добавления новых серий; при каждом добавлении создётся новый торрент.
Чтобы начать докачку новой серии, пользователям необходимо сделать следующее:
1) остановить скачивание
2) удалить старый торрент у себя из клиента (старые серии удалять не надо)
3) скачать новый торрент и запустить его у себя в клиенте вместо старого, при этом указать клиенту путь в старую папку куда и должно происходить скачивание новых серий.
Ваш клиент при этом должен произвести хеширование (проверку) старой папки (если не производит сам - помогите ему сделать это), и будет докачивать только те серии которых у вас ещё нет. Старые серии при этом не удаляются, а продолжают раздаваться!
Eсли вы уже удалили старые серии, то предотвратить повторную закачку старых серий можно, отжав галочку в соответствовавших местах при запуске нового торрента.
[opentorrent.pro].t3335.torrent 
Торрент: Зарегистрирован [ 2019-06-03 16:38 ] · A8A4F1028AEE24ED9EB0D7C2E386FE10EFA80D6A

Скачать .torrent

Скачать

12 KB

Статус: проверено
Скачан: 0 раз
Размер: 286 MB  ·  Тип торрента
terms.php
Показать сообщения:    

Текущее время: 12-Авг 03:03

Часовой пояс: UTC ± 0



Вы не можете начинать темы
Вы не можете отвечать на сообщения
Вы не можете редактировать свои сообщения
Вы не можете удалять свои сообщения
Вы не можете голосовать в опросах
Вы не можете прикреплять файлы к сообщениям
Вы можете скачивать файлы