Статистика раздачи
Размер:  1,72 GB   |    Зарегистрирован:  1 год 2 месяца   |    Скачан:  0 раз
DL-List: Нет

Полного источника не было: Никогда

 
     
 
 

Гость ®

Пол:
Не указан

Лицо ангела / The Face of an Angel
Страна: Великобритания, Италия, Испания
Жанр: триллер, драма
Год выпуска: 2014
Продолжительность: 01:37:32
Перевод: Профессиональный (многоголосый закадровый) - iTunes
Субтитры: нет
Оригинальная аудиодорожка: английский
Режиссер: Майкл Уинтерботтом / Michael Winterbottom
В ролях: Кара Делевинь, Кейт Бекинсейл, Даниэль Брюль, Женевьев Гонт, Ава Акрес, Люси Коху, Сара Стюарт, Сай Беннетт, Алистэр Петри, Рози Феллнер
Описание: После прогремевшего на весь мир убийства молодой девушки, в итальянский город Сиена приезжает молодой режиссер для подготовки к съемкам фильма по мотивам преступления. Там он знакомится с американской журналисткой Симоной Форд, недавно написавшей об этом противоречивую книгу. В городе правят бал обезумевшие репортеры со всего мира, вываливающие на своих зрителей у телеэкранов груды «грязного белья» в погоне за кричащими заголовками. А об убитой девушке абсолютно забыли…
Сэмпл
Качество видео: HDRip [L1c0.AHGeLa.2O14.P.BDRip.1O8OP]
Формат видео: AVI
Видео: 720x304 (2.37:1), 25 fps, XviD build 73 ~1744 kbps avg, 0.32 bit/pixel
Аудио: 48 kHz, AC3 Dolby Digital, 3/2 (L,C,R,l,r) + LFE ch, ~384 kbps - многоголосый
Аудио: 48 kHz, AC3 Dolby Digital, 3/2 (L,C,R,l,r) + LFE ch, ~384 kbps - оригинал (отдельным файлом)

MediaInfo

General
Complete name : H:\The.Face.of.an.Angel.2014.hdrip_[1.46]_[teko]\The.Face.of.an.Angel.2014.hdrip_[1.46].avi
Format : AVI
Format/Info : Audio Video Interleave
File size : 1.46 GiB
Duration : 1h 37mn
Overall bit rate : 2 138 Kbps
Writing application : VirtualDubMod 1.5.10.3 | www.virtualdub-fr.org || (build 2550/release)
Writing library : VirtualDubMod build 2550/release
Video
ID : 0
Format : MPEG-4 Visual
Format profile : Advanced Simple@L5
Format settings, BVOP : 2
Format settings, QPel : No
Format settings, GMC : No warppoints
Format settings, Matrix : Custom
Codec ID : XVID
Codec ID/Hint : XviD
Duration : 1h 37mn
Bit rate : 1 745 Kbps
Width : 720 pixels
Height : 304 pixels
Display aspect ratio : 2.35:1
Frame rate : 25.000 fps
Color space : YUV
Chroma subsampling : 4:2:0
Bit depth : 8 bits
Scan type : Progressive
Compression mode : Lossy
Bits/(Pixel*Frame) : 0.319
Stream size : 1.19 GiB (82%)
Writing library : XviD 73
Audio
ID : 1
Format : AC-3
Format/Info : Audio Coding 3
Mode extension : CM (complete main)
Format settings, Endianness : Big
Codec ID : 2000
Duration : 1h 37mn
Bit rate mode : Constant
Bit rate : 384 Kbps
Channel(s) : 6 channels
Channel positions : Front: L C R, Side: L R, LFE
Sampling rate : 48.0 KHz
Frame rate : 31.250 fps (1536 spf)
Compression mode : Lossy
Stream size : 268 MiB (18%)
Alignment : Split accross interleaves
Interleave, duration : 40 ms (1.00 video frame)
Interleave, preload duratio : 500 ms

Скриншоты

Релиз группы:
--
[opentorrent.pro].t3339.torrent 
Торрент: Зарегистрирован [ 2019-06-03 16:38 ] · 4308DD8F3C512D5B4A5B5D11E1D5D245FF2F836E

Скачать .torrent

Скачать

18 KB

Статус: проверено
Скачан: 0 раз
Размер: 1,72 GB  ·  Тип торрента
terms.php
Показать сообщения:    

Текущее время: 12-Авг 09:48

Часовой пояс: UTC ± 0



Вы не можете начинать темы
Вы не можете отвечать на сообщения
Вы не можете редактировать свои сообщения
Вы не можете удалять свои сообщения
Вы не можете голосовать в опросах
Вы не можете прикреплять файлы к сообщениям
Вы можете скачивать файлы