Статистика раздачи
Размер:  821 MB   |    Зарегистрирован:  1 год 1 месяц   |    Скачан:  0 раз
DL-List: Нет

Полного источника не было: Никогда

 
     
 
 

Гость ®

Пол:
Не указан

-12 часов-- -Год выпуска: 2019
Производство: Триикс Медиа
Жанр: детектив, криминал, боевик
Продолжительность: ~00:47:00
Субтитры: нет-Режиссёр: Алан Дзоциев-В ролях: Эдуард Флёров, Сергей Интяков, Александр Пашков, Юрий Батурин, Алексей Титков, Денис Моисеев, Оксана Сырцова, Андрей Смелов, Екатерина Зорина-Описание: На глазах оперативника уголовного розыска Юрия Савостьянова неизвестный киллер убил его невесту Елену. Следствие так и не нашло виновных. Ровно год спустя в здании полиции неизвестный ликвидирует крупного питерского криминального авторитета Алексея Чухонца. Поиски убийцы выводят Савостьянова на бизнесмена Бориса Комаровского по прозвищу Ладога, который, скорее всего, нанял киллера для расправы над Чухонцем.-Предыдущие и альтернативные раздачи-Реклама: Нет- - -Качество: WEBRip-AVC / WEBRip 1080p
Формат: MKV
Видео кодек: H.264
Аудио кодек: AC3-Видео: MPEG-4 AVC, 768x432 (16:9), 25.000 fps, ~1000 kbps avg, 0.121 bit/pixel
Аудио: 48 kHz, AC3 Dolby Digital, 2/0 (L,R) ch, ~192 kbps avg-

MediaInfo

Код:Complete name : D:\Раздача\12 часов (2019)\01 - 12 часов (2019) WEBRip-AVC_ivanes.mkv
Format : Matroska
Format version : Version 2
File size : 410 MiB
Duration : 48 min 0 s
Overall bit rate : 1 193 kb/s
Movie name : 01 - 12 часов (2019) WEBRip-AVC_ivanes
Encoded date : UTC 2019-06-03 12:22:28
Writing application : mkvmerge v4.4.0 ('Die Wiederkehr') сборка от Jan 3 2011 21:40:45
Writing library : libebml v1.0.0 + libmatroska v1.0.0
Cover : Yes
Attachments : cover.jpg
Video
ID : 1
Format : AVC
Format/Info : Advanced Video Codec
Format profile : High@L4.1
Format settings, CABAC : Yes
Format settings, RefFrames : 10 frames
Codec ID : V_MPEG4/ISO/AVC
Duration : 48 min 0 s
Bit rate : 1 000 kb/s
Width : 768 pixels
Height : 432 pixels
Display aspect ratio : 16:9
Frame rate mode : Constant
Frame rate : 25.000 FPS
Color space : YUV
Chroma subsampling : 4:2:0
Bit depth : 8 bits
Scan type : Progressive
Bits/(Pixel*Frame) : 0.121
Stream size : 336 MiB (82%)
Title : Rip by ivanes
Writing library : x264 core 157 r2969 d4099dd
Encoding settings : cabac=1 / ref=10 / deblock=1:-3:-3 / analyse=0x3:0x113 / me=umh / subme=8 / psy=1 / psy_rd=1.00:0.00 / mixed_ref=1 / me_range=32 / chroma_me=1 / trellis=2 / 8x8dct=1 / cqm=0 / deadzone=21,11 / fast_pskip=0 / chroma_qp_offset=-2 / threads=12 / lookahead_threads=3 / sliced_threads=0 / nr=0 / decimate=1 / interlaced=0 / bluray_compat=0 / constrained_intra=0 / bframes=10 / b_pyramid=2 / b_adapt=2 / b_bias=0 / direct=1 / weightb=1 / open_gop=0 / weightp=2 / keyint=250 / keyint_min=25 / scenecut=40 / intra_refresh=0 / rc_lookahead=60 / rc=2pass / mbtree=0 / bitrate=1000 / ratetol=1.0 / qcomp=0.60 / qpmin=0 / qpmax=69 / qpstep=4 / cplxblur=20.0 / qblur=0.5 / vbv_maxrate=50000 / vbv_bufsize=62500 / nal_hrd=none / filler=0 / ip_ratio=1.40 / pb_ratio=1.30 / aq=1:1.00
Default : Yes
Forced : No
Statistics Tags Issue : mkvmerge v10.0.0 ('To Drown In You') 64bit 2019-06-03 12:17:49 / mkvmerge v4.4.0 ('Die Wiederkehr') сборка от Jan 3 2011 21:40:45 2019-06-03 12:22:28
FromStats_BitRate : 999168
FromStats_Duration : 00:48:00.240000000
FromStats_FrameCount : 72006
FromStats_StreamSize : 359730799
Audio
ID : 2
Format : AC-3
Format/Info : Audio Coding 3
Format settings, Endianness : Big
Codec ID : A_AC3
Duration : 48 min 0 s
Bit rate mode : Constant
Bit rate : 192 kb/s
Channel(s) : 2 channels
Channel positions : Front: L R
Sampling rate : 48.0 kHz
Frame rate : 31.250 FPS (1536 SPF)
Bit depth : 16 bits
Compression mode : Lossy
Stream size : 65.9 MiB (16%)
Language : Russian
Service kind : Complete Main
Default : Yes
Forced : No

Скриншоты

[opentorrent.pro].t3343.torrent 
Торрент: Зарегистрирован [ 2019-06-03 16:38 ] · 5F36D0D90C304537A882D2BBEEF96D9BE84C6B4A

Скачать .torrent

Скачать

17 KB

Статус: проверено
Скачан: 0 раз
Размер: 821 MB  ·  Тип торрента
terms.php
Показать сообщения:    

Текущее время: 08-Июл 07:11

Часовой пояс: UTC ± 0



Вы не можете начинать темы
Вы не можете отвечать на сообщения
Вы не можете редактировать свои сообщения
Вы не можете удалять свои сообщения
Вы не можете голосовать в опросах
Вы не можете прикреплять файлы к сообщениям
Вы можете скачивать файлы