Статистика раздачи
Размер:  2,14 GB   |    Зарегистрирован:  11 месяцев 26 дней   |    Скачан:  0 раз
DL-List: Нет

Полного источника не было: Никогда

 
     
 
 

serzh ®

Пол:
Не указан
Стаж:
1 год 2 месяца
Сообщений:
442

Жемчужина Нила / Алмаз с берегов Нила / The Jewel Of The Nile
«They're back again...and romancing a brand new stone»
Страна: США
Жанр: боевик, мелодрама, комедия, приключения
Год выпуска: 1985
Продолжительность: 01:45:55
Перевод: Авторский (одноголосый закадровый) Леонид Володарский
Перевод 2: Профессиональный (многоголосый закадровый) Рен ТВ
Оригинальная аудиодорожка: английский
Субтитры: нет
Режиссер: Льюис Тиг / Lewis Teague
В ролях: Майкл Дуглас (Jack T. Colton), Кэтлин Тёрнер (Joan Wilder), Дэнни ДеВито (Ralph), Спирос Фокас (Omar), Эвнер Айзенберг (Jewel), Пол Дэвид Магид (Tarak), Холланд Тейлор (Gloria), Ховард Джей Пэттерсон (Barak), Рэндал Эдвин Нельсон (Karak), Сэмюэл Росс Уильямс (Arak)
Описание: Герои предыдущей части Джэк и Джоан живут спокойной, размеренной жизнью богатых бездельников. У них есть все, что могут позволить деньги: яхта, виллы, прислуга. Но им скучно. Скучно друг с другом, и этим обществом. Чтобы развлечь себя, Джоан принимает приглашение арабского шейха посетить его восточную резиденцию. Но сказка обернулась кошмаром: арабский красавец похищает Джоан и требует выкуп — «жемчужину». Джэк, заручившись поддержкой своего нового партнера Ральфа, принимает непростое решение — спасти Джоан. Но есть одно осложнение, Джэку хочет отомстить старый напарник.
Доп. информация: Дорожка с Л. Володарским синхронизирована и наложена ale_x2008 при помощи Adobe Audition, Sony Vegas и VirtualDubMod.
За оцифрованную с VHS дорожку благодарим - RoxMarty
За дорожку Рен ТВ спасибо Liu Jian
Дорожка предоставлена Rey Gleeson, синхронизировал mister55555

Релиз
Сэмпл: https://yadi.sk/i/jBXBBW9S2BFTWg
Качество видео: BDRip (источник / Blu-ray Disc / 1080p The Jewel of the Nile RUS 37.59 GB)
Формат видео: AVI
Видео: 720x304 (2.37:1), 23.976 fps, XviD MPEG-4 ~2055 kbps avg, 0.39 bit/pixel
Аудио: AC3 Dolby Digital, 48000Hz 2/0 (L,R) ch (mono), 192 kbps avg AVO
Аудио 2: AC3 Dolby Digital, 48000Hz 2/0 (L,R) ch, 192 kbps avg MVO
Аудио 3: 48 kHz, AC3 Dolby Digital, 3/2 (L,C,R,l,r) + LFE ch, ~448 kbps | Eng

MediaInfo

Жемчужина Нила - The Jewel of the Nile (by ale_x2008) fix2.avi
Format : AVI
Format/Info : Audio Video Interleave
Format profile : OpenDML
File size : 2.14 GiB
Duration : 1 h 45 min
Overall bit rate : 2 895 kb/s
Movie name : Жемчужина Нила - The Jewel of the Nile (by ale_x2008) fix
Director : by Edich2
Writing application : VirtualDubMod 1.5.10.2 (build 2540/release)
Writing library : VirtualDubMod build 2540/release
Copyright : Edich2
Comment : RuTracker.org
Video
ID : 0
Format : MPEG-4 Visual
Format profile : Advanced Simple@L5
Format settings : BVOP2 / Custom Matrix
Format settings, BVOP : 2
Format settings, QPel : No
Format settings, GMC : No warppoints
Format settings, Matrix : Custom
Codec ID : XVID
Codec ID/Hint : XviD
Duration : 1 h 45 min
Bit rate : 2 038 kb/s
Width : 720 pixels
Height : 304 pixels
Display aspect ratio : 2.35:1
Frame rate : 23.976 (24000/1001) FPS
Color space : YUV
Chroma subsampling : 4:2:0
Bit depth : 8 bits
Scan type : Progressive
Compression mode : Lossy
Bits/(Pixel*Frame) : 0.388
Stream size : 1.51 GiB (70%)
Writing library : XviD 63
Audio #1
ID : 1
Format : AC-3
Format/Info : Audio Coding 3
Codec ID : 2000
Duration : 1 h 45 min
Bit rate mode : Constant
Bit rate : 192 kb/s
Channel(s) : 2 channels
Channel positions : Front: L R
Sampling rate : 48.0 kHz
Frame rate : 31.250 FPS (1536 SPF)
Bit depth : 16 bits
Compression mode : Lossy
Delay relative to video : 32 ms
Stream size : 145 MiB (7%)
Alignment : Split accross interleaves
Interleave, duration : 42 ms (1.00 video frame)
Interleave, preload duratio : 500 ms
Service kind : Complete Main
Audio #2
ID : 2
Format : AC-3
Format/Info : Audio Coding 3
Codec ID : 2000
Duration : 1 h 45 min
Bit rate mode : Constant
Bit rate : 192 kb/s
Channel(s) : 2 channels
Channel positions : Front: L R
Sampling rate : 48.0 kHz
Frame rate : 31.250 FPS (1536 SPF)
Bit depth : 16 bits
Compression mode : Lossy
Stream size : 145 MiB (7%)
Alignment : Split accross interleaves
Interleave, duration : 42 ms (1.00 video frame)
Interleave, preload duratio : 500 ms
Service kind : Complete Main
Audio #3
ID : 3
Format : AC-3
Format/Info : Audio Coding 3
Codec ID : 2000
Duration : 1 h 45 min
Bit rate mode : Constant
Bit rate : 448 kb/s
Channel(s) : 6 channels
Channel positions : Front: L C R, Side: L R, LFE
Sampling rate : 48.0 kHz
Frame rate : 31.250 FPS (1536 SPF)
Bit depth : 16 bits
Compression mode : Lossy
Delay relative to video : 24 ms
Stream size : 339 MiB (15%)
Alignment : Split accross interleaves
Interleave, duration : 42 ms (1.00 video frame)
Interleave, preload duratio : 500 ms
Service kind : Complete Main

Скриншоты


[opentorrent.pro].t3347.torrent 
Торрент: Зарегистрирован [ 2019-06-04 17:08 ] · ED4B049DEEEAF6B4CB4AA3322F004C52DF0755BE

Скачать .torrent

Скачать

11 KB

Статус: проверено
Скачан: 0 раз
Размер: 2,14 GB  ·  Тип торрента
terms.php
Профиль [ЛС]
Показать сообщения:    

Текущее время: 31-Май 04:54

Часовой пояс: UTC ± 0



Вы не можете начинать темы
Вы не можете отвечать на сообщения
Вы не можете редактировать свои сообщения
Вы не можете удалять свои сообщения
Вы не можете голосовать в опросах
Вы не можете прикреплять файлы к сообщениям
Вы можете скачивать файлы