Статистика раздачи
Размер:  2,49 GB   |    Зарегистрирован:  1 год 2 месяца   |    Скачан:  0 раз
DL-List: Нет

Полного источника не было: Никогда

Личеров:  2  [  0 KB/s  ]  
 
     
 
 

Гость ®

Пол:
Не указан

Свадьбы и разводы
Год выпуска: 2019
Производство: Мелодрама
Жанр: Россия, Epic Media
Продолжительность: 4 x ~ 00:49:00
Субтитры: Нет
Режиссёр: Вардан Акопян
В ролях: Антон Хабаров, Елена Николаева (II), Антон Денисенко, Рина Гришина, Данила Шевченко, Павел Ворожцов, Ирина Темичева, Анастасия Панина, Владимир Симонов, Олег Комаров (II), Ольга Тумайкина, Ирина Розанова, Любовь Германова, Анна Каменкова, Сергей Юшкевич, Алексей Гришин, Степан Девонин, Дмитрий Прокофьев, Александр Ревенко, Лада Чуровская, Алёна Коломина, Ольга Торощина, Анастасия Теплинская, Тата Хачатрян, Кирилл Иванов, Анастасия Куимова, Надя Славецкая, Евгения Розанова, Анна Донченко, Илья Исаев
Описание: Женя и Марк работают в одном офисном центре. Она - владелица небольшого агентства по организации свадеб, настоящая брачная фея, и, кстати, скоро сама собирается замуж. Он – высококлассный адвокат, специализирующийся на разводах и разделе имущества. Каждый из них искренне любит свое дело и уверен, что что помогает людям стать счастливее. Однажды Женя и Марк знакомятся, и... Теперь Женя не так уверена, что хочет замуж за своего идеального Сашу. А Марк, похоже, встретил девушку, ради которой мог бы пересмотреть свои принципы убежденного одиночки. Каждая новая пара, будь то будущие молодожены у Жени, или будущие "бывшие" у Марка, подкидывает им новые темы для размышлений и споров. Удастся ли нашим героям понять друг друга и поверить, что любовь важнее принципов?
Релиз группа
Реклама: Сторонней рекламы нет!
Все раздачи сериала Свадьбы и разводы


Качество: WEBRip
Формат: AVI
Видео кодек: XviD
Аудио кодек: AC3
Видео: 720x400 (1.80:1), 25 fps, XviD build 73 ~1600 kbps avg, 0.222 bit/pixel
Аудио: 48 kHz, AC3 Dolby Digital, 2/0 (L,R) ch, ~192 kbps

Скриншоты

MediaInfo

General
Complete name : C:\00\6354\Свадьбы и разводы.2019.WEB-DLRip. Files-x\01. Свадьбы и разводы.2019.WEB-DLRip. Files-x.avi
Format : AVI
Format/Info : Audio Video Interleave
File size : 642 MiB
Duration : 49mn 47s
Overall bit rate : 1 802 Kbps
Writing application : VirtualDubMod 1.5.10.3 | www.virtualdub-fr.org || (build 2550/release)
Writing library : VirtualDubMod build 2550/release
Video
ID : 0
Format : MPEG-4 Visual
Format profile : Advanced Simple@L5
Format settings, BVOP : 1
Format settings, QPel : No
Format settings, GMC : No warppoints
Format settings, Matrix : Custom
Codec ID : XVID
Codec ID/Hint : XviD
Duration : 49mn 47s
Bit rate : 1 600 Kbps
Width : 720 pixels
Height : 400 pixels
Display aspect ratio : 16:9
Frame rate : 25.000 fps
Color space : YUV
Chroma subsampling : 4:2:0
Bit depth : 8 bits
Scan type : Progressive
Compression mode : Lossy
Bits/(Pixel*Frame) : 0.222
Stream size : 570 MiB (89%)
Writing library : XviD 73
Audio
ID : 1
Format : AC-3
Format/Info : Audio Coding 3
Mode extension : CM (complete main)
Codec ID : 2000
Duration : 49mn 47s
Bit rate mode : Constant
Bit rate : 192 Kbps
Channel(s) : 2 channels
Channel positions : Front: L R
Sampling rate : 48.0 KHz
Bit depth : 16 bits
Compression mode : Lossy
Stream size : 68.4 MiB (11%)
Alignment : Split accross interleaves
Interleave, duration : 40 ms (1.00 video frame)
Interleave, preload duration : 500 ms

Внимание! Раздача ведётся путём добавления новых серий!

Внимание! Раздача ведётся путём добавления новых серий
Внимание! Раздача ведётся путём добавления новых серий; при каждом добавлении создётся новый торрент.
Чтобы начать докачку новой серии, пользователям необходимо сделать следующее:
1) остановить скачивание
2) удалить старый торрент у себя из клиента (старые серии удалять не надо)
3) скачать новый торрент и запустить его у себя в клиенте вместо старого, при этом указать клиенту путь в старую папку куда и должно происходить скачивание новых серий.
Ваш клиент при этом должен произвести хеширование (проверку) старой папки (если не производит сам - помогите ему сделать это), и будет докачивать только те серии которых у вас ещё нет. Старые серии при этом не удаляются, а продолжают раздаваться!
Eсли вы уже удалили старые серии, то предотвратить повторную закачку старых серий можно, отжав галочку в соответствовавших местах при запуске нового торрента.
[opentorrent.pro].t3357.torrent 
Торрент: Зарегистрирован [ 2019-06-04 17:08 ] · 9EA7BBAD4387C58DB24664959B0C8A8B09E7E619

Скачать .torrent

Скачать

13 KB

Статус: проверено
Скачан: 0 раз
Размер: 2,49 GB  ·  Тип торрента
terms.php
Показать сообщения:    

Текущее время: 08-Авг 18:25

Часовой пояс: UTC ± 0



Вы не можете начинать темы
Вы не можете отвечать на сообщения
Вы не можете редактировать свои сообщения
Вы не можете удалять свои сообщения
Вы не можете голосовать в опросах
Вы не можете прикреплять файлы к сообщениям
Вы можете скачивать файлы