Статистика раздачи
Размер:  2,07 GB   |    Зарегистрирован:  1 год 2 месяца   |    Скачан:  0 раз
DL-List: Нет

Полного источника не было: Никогда

 
     
 
 

солнышко ®

Пол:
Не указан
Стаж:
1 год 5 месяцев
Сообщений:
720

Язвы Бреслау / Plagi Breslau
Страна: Польша
Жанр: боевик, триллер, криминал
Год выпуска: 2018
Продолжительность: 01:33:01
Перевод: Одноголосый закадровый - Михаил Чадов (Ненормативная лексика!)
Субтитры: нет
Оригинальная аудиодорожка: польский
Режиссер: Патрик Вега / Patryk Vega
В ролях: Малгожата Кожуховска, Дария Видавска, Катажина Буякевич, Анджей Грабовский, Мария Деймек, Эва Каспшик, Яцек Белер, Войцех Калиновский, Ивона Бельска, Игорь Куявский и др.
Описание: Вроцлав сотрясает волна убийств. Каждый день в 18:00 серийный убийца казнит очередную жертву. Улики приводят Хелену Рус, служащую местного комиссариата полиции, к событиям 18 века.


Качество видео: WEBRip
Формат видео: MKV
Видео: AVC/H.264, 1280x542 (16:9), ~2600 kbps, 25.000 fps
Аудио 1: AC3, 48.0 kHz, 2 ch, 384 kbps - русский, одноголосый
Аудио 2: AC3, 48.0 kHz, 2 ch, 192 kbps - польский

MediaInfo

General
Unique ID : 197100955985334005595429161296729688493 (0x94484368EFAFEDDE802700CDCF7749AD)
Complete name :Plagi.Breslau.2018.mkv
Format : Matroska
Format version : Version 4
File size : 2.07 GiB
Duration : 1 h 33 min
Overall bit rate : 3 178 kb/s
Encoded date : UTC 2019-06-02 18:03:04
Writing application : mkvmerge v8.3.0 ('Over the Horizon') 32bit
Writing library : libebml v1.3.1 + libmatroska v1.4.2
Video
ID : 1
Format : AVC
Format/Info : Advanced Video Codec
Format profile : Main@L4
Format settings : CABAC / 4 Ref Frames
Format settings, CABAC : Yes
Format settings, Reference : 4 frames
Codec ID : V_MPEG4/ISO/AVC
Duration : 1 h 33 min
Bit rate : 2 600 kb/s
Width : 1 280 pixels
Height : 542 pixels
Display aspect ratio : 2.35:1
Frame rate mode : Constant
Frame rate : 25.000 FPS
Color space : YUV
Chroma subsampling : 4:2:0
Bit depth : 8 bits
Scan type : Progressive
Bits/(Pixel*Frame) : 0.150
Stream size : 1.69 GiB (82%)
Writing library : x264 core 148 r2708 86b7198
Encoding settings : cabac=1 / ref=1 / deblock=1:0:0 / analyse=0x1:0x111 / me=hex / subme=2 / psy=1 / psy_rd=1.00:0.00 / mixed_ref=0 / me_range=16 / chroma_me=1 / trellis=0 / 8x8dct=0 / cqm=0 / deadzone=21,11 / fast_pskip=1 / chroma_qp_offset=0 / threads=12 / lookahead_threads=4 / sliced_threads=0 / nr=0 / decimate=1 / interlaced=0 / bluray_compat=0 / constrained_intra=0 / bframes=3 / b_pyramid=2 / b_adapt=1 / b_bias=0 / direct=1 / weightb=1 / open_gop=0 / weightp=1 / keyint=250 / keyint_min=25 / scenecut=40 / intra_refresh=0 / rc_lookahead=10 / rc=2pass / mbtree=1 / bitrate=2600 / ratetol=1.0 / qcomp=0.60 / qpmin=0 / qpmax=69 / qpstep=4 / cplxblur=20.0 / qblur=0.5 / vbv_maxrate=20000 / vbv_bufsize=25000 / nal_hrd=none / filler=0 / ip_ratio=1.40 / aq=1:1.00
Default : Yes
Forced : No
Color range : Limited
Color primaries : BT.709
Transfer characteristics : BT.709
Matrix coefficients : BT.709
Audio #1
ID : 2
Format : AC-3
Format/Info : Audio Coding 3
Commercial name : Dolby Digital
Codec ID : A_AC3
Duration : 1 h 33 min
Bit rate mode : Constant
Bit rate : 384 kb/s
Channel(s) : 2 channels
Channel layout : L R
Sampling rate : 48.0 kHz
Frame rate : 31.250 FPS (1536 SPF)
Bit depth : 16 bits
Compression mode : Lossy
Stream size : 256 MiB (12%)
Language : Russian
Service kind : Complete Main
Default : Yes
Forced : No
Audio #2
ID : 3
Format : AC-3
Format/Info : Audio Coding 3
Commercial name : Dolby Digital
Codec ID : A_AC3
Duration : 1 h 33 min
Bit rate mode : Constant
Bit rate : 192 kb/s
Channel(s) : 2 channels
Channel layout : L R
Sampling rate : 48.0 kHz
Frame rate : 31.250 FPS (1536 SPF)
Bit depth : 16 bits
Compression mode : Lossy
Stream size : 128 MiB (6%)
Language : Polish
Service kind : Complete Main
Default : No
Forced : No

Скриншоты

[opentorrent.pro].t3358.torrent 
Торрент: Зарегистрирован [ 2019-06-04 17:08 ] · 22986D4D2368B41469FCCE66A497351CB6B58111

Скачать .torrent

Скачать

11 KB

Статус: проверено
Скачан: 0 раз
Размер: 2,07 GB  ·  Тип торрента
terms.php
Профиль [ЛС]
Показать сообщения:    

Текущее время: 12-Авг 15:41

Часовой пояс: UTC ± 0



Вы не можете начинать темы
Вы не можете отвечать на сообщения
Вы не можете редактировать свои сообщения
Вы не можете удалять свои сообщения
Вы не можете голосовать в опросах
Вы не можете прикреплять файлы к сообщениям
Вы можете скачивать файлы