Статистика раздачи
Размер:  1,21 GB   |    Зарегистрирован:  1 год 1 месяц   |    Скачан:  0 раз
DL-List: Нет

Полного источника не было: Никогда

 
     
 
 

Гость ®

Пол:
Не указан

Немедленное реагирование
Год выпуска: 2019
Производство: Детектив, криминальный фильм
Жанр: Россия, Киностудия КИТ по заказу телеканала НТВ
Продолжительность: 2 x ~ 00:49:00
Субтитры: Нет
Режиссёр: Владимир Койфман
В ролях: Иван Батарев, Илья Алексеев, Максим Меркулов (II), Елена Радевич, Александр Конев, Анна Чурина, Виталий Коваленко, Роман Грибков, Денис Синявский, Андрей Гульнев, Георгий Маришин, Андрей Мокеев, Андрей Полищук, Андрей Аверков, Богдан Псел, Виталий Олечкин, Евгений Покрамович, Кирилл Балобан, Владлена Осичкина, Владимир Маслаков, Андрей Либенсон, Леон Словицкий, Денис Кириллов, Яков Петров, Дмитрий Миков
Описание: Капитан полиции Александр Осокин — командир группы Немедленного Реагирования. Прибыв на очередной экстренный вызов, группа оказывается под перекрёстным огнём наркоторговцев. В перестрелке получает тяжёлое ранение- прапорщик Порс, а старший лейтенант Зуев — погибает. Ситуация осложняется тем, что с места происшествия пропала сумка с крупной суммой денег. Осокину удаётся найти пропавшие деньги. Но перед ним встаёт моральный выбор: сдать деньги в полицию или использовать их, чтобы помочь близким.
Релиз группа
Реклама: Сторонней рекламы нет!
Все раздачи сериала Немедленное реагирование


Качество: WEBRip
Формат: AVI
Видео кодек: XviD
Аудио кодек: AC3
Видео: 720x400 (1.80:1), 25 fps, XviD build 73 ~1600 kbps avg, 0.222 bit/pixel
Аудио: 48 kHz, AC3 Dolby Digital, 2/0 (L,R) ch, ~192 kbps

Скриншоты

MediaInfo

General
Complete name : H:\Немедленное реагирование.(2019).WEBRip..Files-x\01.Немедленное реагирование.2019.WEBRip.Files-x.avi
Format : AVI
Format/Info : Audio Video Interleave
File size : 622 MiB
Duration : 48mn 18s
Overall bit rate : 1 802 Kbps
Writing application : VirtualDubMod 1.5.10.3 | www.virtualdub-fr.org || (build 2550/release)
Writing library : VirtualDubMod build 2550/release
Video
ID : 0
Format : MPEG-4 Visual
Format profile : Advanced Simple@L5
Format settings, BVOP : 1
Format settings, QPel : No
Format settings, GMC : No warppoints
Format settings, Matrix : Custom
Codec ID : XVID
Codec ID/Hint : XviD
Duration : 48mn 18s
Bit rate : 1 600 Kbps
Width : 720 pixels
Height : 400 pixels
Display aspect ratio : 16:9
Frame rate : 25.000 fps
Color space : YUV
Chroma subsampling : 4:2:0
Bit depth : 8 bits
Scan type : Progressive
Compression mode : Lossy
Bits/(Pixel*Frame) : 0.222
Stream size : 553 MiB (89%)
Writing library : XviD 73
Audio
ID : 1
Format : AC-3
Format/Info : Audio Coding 3
Mode extension : CM (complete main)
Codec ID : 2000
Duration : 48mn 18s
Bit rate mode : Constant
Bit rate : 192 Kbps
Channel(s) : 2 channels
Channel positions : Front: L R
Sampling rate : 48.0 KHz
Bit depth : 16 bits
Compression mode : Lossy
Stream size : 66.3 MiB (11%)
Alignment : Split accross interleaves
Interleave, duration : 40 ms (1.00 video frame)
Interleave, preload duration : 500 ms

Внимание! Раздача ведётся путём добавления новых серий!

Внимание! Раздача ведётся путём добавления новых серий
Внимание! Раздача ведётся путём добавления новых серий; при каждом добавлении создётся новый торрент.
Чтобы начать докачку новой серии, пользователям необходимо сделать следующее:
1) остановить скачивание
2) удалить старый торрент у себя из клиента (старые серии удалять не надо)
3) скачать новый торрент и запустить его у себя в клиенте вместо старого, при этом указать клиенту путь в старую папку куда и должно происходить скачивание новых серий.
Ваш клиент при этом должен произвести хеширование (проверку) старой папки (если не производит сам - помогите ему сделать это), и будет докачивать только те серии которых у вас ещё нет. Старые серии при этом не удаляются, а продолжают раздаваться!
Eсли вы уже удалили старые серии, то предотвратить повторную закачку старых серий можно, отжав галочку в соответствовавших местах при запуске нового торрента.
[opentorrent.pro].t3366.torrent 
Торрент: Зарегистрирован [ 2019-06-04 17:08 ] · 38C15D38067A5F394A5A391D5216E8B9AD92B4F1

Скачать .torrent

Скачать

13 KB

Статус: проверено
Скачан: 0 раз
Размер: 1,21 GB  ·  Тип торрента
terms.php
Показать сообщения:    

Текущее время: 08-Июл 06:33

Часовой пояс: UTC ± 0



Вы не можете начинать темы
Вы не можете отвечать на сообщения
Вы не можете редактировать свои сообщения
Вы не можете удалять свои сообщения
Вы не можете голосовать в опросах
Вы не можете прикреплять файлы к сообщениям
Вы можете скачивать файлы