Статистика раздачи
Размер:  2,47 GB   |    Зарегистрирован:  11 месяцев 25 дней   |    Скачан:  0 раз
DL-List: Нет

Полного источника не было: Никогда

 
     
 
 

serzh ®

Пол:
Не указан
Стаж:
1 год 2 месяца
Сообщений:
442

Директор / The Principal«Учебное заведение или бандитский притон?»-- Страна: США
Жанр: Боевик, Триллер, Драма, Криминал
Год выхода: 1987
Продолжительность: 01:50:16
Перевод #1: Профессиональный (дублированный) | Варус Видео |
Перевод #2: Профессиональный (двухголосый, закадровый) | Видеосервис |
Перевод #3: Профессиональный (многоголосый, закадровый) | R5 |
Перевод #4: Авторский (одноголосый, закадровый) | А. Гаврилов |
Оригинальная аудиодорожка: Английский
Субтитры: Русские, Английские.
Режиссер: Кристофер Кэйн / Christopher Cain
В ролях: Джеймс Белуши, Луис Госсетт мл., Рей Дон Чонг, Майкл Райт, Дж. Дж. Коэн, Эсай Моралес, Трой Уинбуш, Джейкоб Варгас, Томас Райан, Реджи Джонсон
О фильме: Рик разъезжает на лихом мотоцикле и разгуливает с бейсбольной битой. Но он — не бандит и не трудный подросток. Рик — новый директор школы, самой худшей в районе, да и в мире, пожалуй. Вместо литературы и математики ученики увлечены драками и наркотиками.
Только сумасшедший рискнет изменить существующий порядок. Однако Рик — талантливый учитель. Вместо указки он берет свою любимую биту. Кто сказал, что бить учеников не педагогично?

Автор рипа: HRIME
Сэмпл: скачать
Формат: AVI
Качество: BDRip (источник: BD-Remux - sovsem-neduhoven / 1080p)
Кодек: XviD, build 67 codec
Видео: 704 x 384; 23.976 fps; 2227 kbps; 0.344 bit/pixel
Аудио #1: RUS AC3 Dolby Digital; 192 Kbps; 2 channels; 48 KHz
Аудио #2: RUS AC3 Dolby Digital; 192 Kbps; 2 channels; 48 KHz
Аудио #3: ENG AC3 Dolby Digital; 192 Kbps; 2 channels; 48 KHz
Аудио #4: RUS AC3 Dolby Digital; 192 Kbps; 2 channels; 48 KHz // MVO.R5 / отдельно
Аудио #5: RUS AC3 Dolby Digital; 192 Kbps; 2 channels; 48 KHz // AVO.Gavrilov / отдельно
Размер: 2229 Mb (1/2 DVD)--

Скриншоты


Media Info

Код:General
Complete name : Direktor.1987.TRIPLE.BDRip.XviD.AC3.-HRIME.avi
Format : AVI
Format/Info : Audio Video Interleave
Format profile : OpenDML
File size : 2.18 GiB
Duration : 1h 50mn
Overall bit rate : 2 827 Kbps
Movie name : The.Principal.1987.Christopher.Cain
Director : HRIME
Writing application : VirtualDubMod 1.5.10.2 (build 2542/release)
Original source form/Name : Movie
Comment : 04.06.2019
Video
ID : 0
Format : MPEG-4 Visual
Format profile : Advanced Simple@L5
Format settings, BVOP : 1
Format settings, QPel : No
Format settings, GMC : No warppoints
Format settings, Matrix : Custom
Codec ID : XVID
Codec ID/Hint : XviD
Duration : 1h 50mn
Bit rate : 2 227 Kbps
Width : 704 pixels
Height : 384 pixels
Display aspect ratio : 16:9
Frame rate : 23.976 fps
Color space : YUV
Chroma subsampling : 4:2:0
Bit depth : 8 bits
Scan type : Progressive
Compression mode : Lossy
Bits/(Pixel*Frame) : 0.344
Stream size : 1.72 GiB (79%)
Writing library : XviD 67
Audio #1
ID : 1
Format : AC-3
Format/Info : Audio Coding 3
Mode extension : CM (complete main)
Codec ID : 2000
Duration : 1h 50mn
Bit rate mode : Constant
Bit rate : 192 Kbps
Channel(s) : 2 channels
Channel positions : Front: L R
Sampling rate : 48.0 KHz
Bit depth : 16 bits
Compression mode : Lossy
Stream size : 151 MiB (7%)
Alignment : Split accross interleaves
Interleave, duration : 42 ms (1.00 video frame)
Interleave, preload duration : 500 ms
Audio #2
ID : 2
Format : AC-3
Format/Info : Audio Coding 3
Mode extension : CM (complete main)
Codec ID : 2000
Duration : 1h 50mn
Bit rate mode : Constant
Bit rate : 192 Kbps
Channel(s) : 2 channels
Channel positions : Front: L R
Sampling rate : 48.0 KHz
Bit depth : 16 bits
Compression mode : Lossy
Stream size : 151 MiB (7%)
Alignment : Split accross interleaves
Interleave, duration : 42 ms (1.00 video frame)
Interleave, preload duration : 500 ms
Audio #3
ID : 3
Format : AC-3
Format/Info : Audio Coding 3
Mode extension : CM (complete main)
Codec ID : 2000
Duration : 1h 50mn
Bit rate mode : Constant
Bit rate : 192 Kbps
Channel(s) : 2 channels
Channel positions : Front: L R
Sampling rate : 48.0 KHz
Bit depth : 16 bits
Compression mode : Lossy
Stream size : 151 MiB (7%)
Alignment : Split accross interleaves
Interleave, duration : 42 ms (1.00 video frame)
Interleave, preload duration : 500 ms
Цитата:
  • Работа с аудио - Spiellberg.
  • Чистые голоса Видеосервис доступны благодаря: Spiellberg, GRONHOLD, river, n1ko1as, tambov68, uncasual, fess_master, Valent80, Mister_Yarik, MamonTSan, ilfat1975, gross1978, zavin, ::Кот::, Evromaster, Asmodai, barvinok13, gelom, Shrek1, arizonadream.
  • Дубляж Варус предоставлен Pucs1982.
[opentorrent.pro].t3377.torrent 
Торрент: Зарегистрирован [ 2019-06-04 17:08 ] · 5B925249E15FEA35A87C750853F2A115E6CB2D40

Скачать .torrent

Скачать

13 KB

Статус: проверено
Скачан: 0 раз
Размер: 2,47 GB  ·  Тип торрента
terms.php
Профиль [ЛС]
Показать сообщения:    

Текущее время: 30-Май 13:40

Часовой пояс: UTC ± 0



Вы не можете начинать темы
Вы не можете отвечать на сообщения
Вы не можете редактировать свои сообщения
Вы не можете удалять свои сообщения
Вы не можете голосовать в опросах
Вы не можете прикреплять файлы к сообщениям
Вы можете скачивать файлы