Статистика раздачи
Размер:  1,46 GB   |    Зарегистрирован:  1 год 2 месяца   |    Скачан:  0 раз
DL-List: Нет

Полного источника не было: Никогда

 
     
 
 

солнышко ®

Пол:
Не указан
Стаж:
1 год 4 месяца
Сообщений:
720

Во имя спасения / Время расцвета / Den blomstertid nu kommer / The Unthinkable
Страна: Швеция
Жанр: боевик, триллер, драма, мелодрама
Год выпуска: 2018
Продолжительность: 02:09:19
Перевод: Профессиональный (дублированный) | iTunes
Субтитры: русские (форс.)
Оригинальная аудиодорожка: нет-Режиссер: Виктор Данелл / Victor Danell-В ролях: Кристоффер Нурденрут, Лиза Хенни, Йеспер Баркселиус, Пиа Хальворсен, Магнус Сандберг, Кристер Керн, Карин Бертлинг, Ульрика Бэкстром, Алексей Манвелов, Ингве Далберг-Описание: 2005 год. Алекс живёт в деревне со своим агрессивным отцом Бьёрном. Мать уходит из семьи, а ближайшая подруга Алекса, Анна, переезжает в Стокгольм. Алекс решает уйти из дома и переезжает к родственнику.
Прошло 10 лет. Теперь Алекс живёт в Стокгольме, он известный пианист. В середине лета в Стокгольме раздаются многократные взрывы. Алекс решает вернуться в родную деревню, где он снова встречает Анну. Тем временем, в стране неспокойная обстановка - происходят нападения на людей, происходят сбои в электроснабжении и мобильной связи, да ещё и лето выдалось дождливое. Дождь странно влияет на людей - люди теряют рассудок и воспоминания. Кто же стоит за этими атаками?-Качество видео: BDRip | DEN_BLOMSTERTID_NK_2018_BLUEBIRD
Формат видео: AVI
Видео: 720x304 (2.37:1), 23.976 fps, XviD build 73 ~1416 kbps avg, 0.27 bit/pixel
Аудио: 48 kHz, AC3 Dolby Digital, 2/0 (L,R) ch, ~192 kbps-Сэмпл-

MediaInfo

Код:Формат : AVI
Формат/Информация : Audio Video Interleave
Размер файла : 1,46 Гбайт
Продолжительность : 2 ч. 9 м.
Общий поток : 1618 Кбит/сек
Программа кодирования : VirtualDubMod 1.5.10.3 | www.virtualdub-fr.org || (build 2550/release)
Библиотека кодирования : VirtualDubMod build 2550/release
Видео
Идентификатор : 0
Формат : MPEG-4 Visual
Профиль формата : Advanced Simple@L5
Настройки формата : BVOP1 / Custom Matrix
Параметр BVOP формата : 1
Параметр QPel формата : Нет
Параметр GMC формата : Без точки перехода
Параметр матрицы формата : Выборочная
Идентификатор кодека : XVID
Идентификатор кодека/Подсказка : XviD
Продолжительность : 2 ч. 9 м.
Битрейт : 1417 Кбит/сек
Ширина : 720 пикселей
Высота : 304 пикселя
Соотношение сторон : 2,35:1
Частота кадров : 23,976 (24000/1001) кадра/сек
Цветовое пространство : YUV
Субдискретизация насыщенности : 4:2:0
Битовая глубина : 8 бит
Тип развёртки : Прогрессивная
Метод сжатия : С потерями
Бит/(Пиксели*Кадры) : 0.270
Размер потока : 1,28 Гбайт (88%)
Библиотека кодирования : XviD 73
Аудио
Идентификатор : 1
Формат : AC-3
Формат/Информация : Audio Coding 3
Коммерческое название : Dolby Digital
Идентификатор кодека : 2000
Продолжительность : 2 ч. 9 м.
Вид битрейта : Постоянный
Битрейт : 192 Кбит/сек
Каналы : 2 канала
ChannelLayout : L R
Частота : 48,0 КГц
Частота кадров : 31,250 кадров/сек (1536 SPF)
Битовая глубина : 16 бит
Метод сжатия : С потерями
Размер потока : 177 Мбайт (12%)
Выравнивание : Разделение по промежуткам
Продолжительность промежутка : 42 мс. (1,00 видеокадр)
Время предзагрузки промежутка : 500 мс.
ServiceKind/String : Complete Main

Скриншоты


[opentorrent.pro].t3385.torrent 
Торрент: Зарегистрирован [ 2019-06-05 15:34 ] · 05BA2CB1B4FEFC6B58498F4AA666F9774088AD40

Скачать .torrent

Скачать

15 KB

Статус: проверено
Скачан: 0 раз
Размер: 1,46 GB  ·  Тип торрента
terms.php
Профиль [ЛС]
Показать сообщения:    

Текущее время: 12-Авг 03:20

Часовой пояс: UTC ± 0



Вы не можете начинать темы
Вы не можете отвечать на сообщения
Вы не можете редактировать свои сообщения
Вы не можете удалять свои сообщения
Вы не можете голосовать в опросах
Вы не можете прикреплять файлы к сообщениям
Вы можете скачивать файлы