Статистика раздачи
Размер:  1,46 GB   |    Зарегистрирован:  11 месяцев 24 дня   |    Скачан:  0 раз
DL-List: Нет

Полного источника не было: Никогда

 
     
 
 

солнышко ®

Пол:
Не указан
Стаж:
1 год 2 месяца
Сообщений:
723

Обещание на рассвете / La promesse de l'aube
Страна: Франция, Бельгия
Жанр: драма, мелодрама, биография
Год выпуска: 2017
Продолжительность: 02:10:28-Перевод: Профессиональный (дублированный) | iTunes
Субтитры: русские (форс.)
Оригинальная аудиодорожка: нет-Режиссер: Эрик Барбье / Eric Barbier-В ролях: Пьер Нинэ, Шарлотта Генсбур, Дидье Бурдон, Жан-Пьер Дарруссен, Кэтрин МакКормак, Финнеген Олдфилд, Павел Пухальский, Немо Шиффман, Зои Бойл, Лу Шовен-Описание: Экранизация автобиографического романа писателя Ромена Гари. Еще когда будущий лауреат Гонкуровской премии был ребенком, его мать твердо решила, что он станет дипломатом и всемирно известным писателем. Несмотря на то, что над ней смеялись окружающие, а сын сомневался в собственных силах, она продолжала в него верить — и все ее невероятные мечты сбылись. Материнская любовь и безусловная поддержка вели Ромена через все испытания и приключения его жизни, полной тайн, сражений и невероятных поворотов.- -Качество видео: BDRip | La.Promesse.De.L.Aube.2017.BDRemux.TeamHD-potroks
Формат видео: AVI
Видео: 720x304 (2.37:1), 23.976 fps, XviD build 73 ~1401 kbps avg, 0.27 bit/pixel
Аудио: 48 kHz, AC3 Dolby Digital, 2/0 (L,R) ch, ~192 kbps-Сэмпл-

MediaInfo

Код:Формат : AVI
Формат/Информация : Audio Video Interleave
Размер файла : 1,46 Гбайт
Продолжительность : 2 ч. 10 м.
Общий поток : 1603 Кбит/сек
Программа кодирования : VirtualDubMod 1.5.10.3 | www.virtualdub-fr.org || (build 2550/release)
Библиотека кодирования : VirtualDubMod build 2550/release
Видео
Идентификатор : 0
Формат : MPEG-4 Visual
Профиль формата : Advanced Simple@L5
Настройки формата : BVOP1 / Custom Matrix
Параметр BVOP формата : 1
Параметр QPel формата : Нет
Параметр GMC формата : Без точки перехода
Параметр матрицы формата : Выборочная
Идентификатор кодека : XVID
Идентификатор кодека/Подсказка : XviD
Продолжительность : 2 ч. 10 м.
Битрейт : 1401 Кбит/сек
Ширина : 720 пикселей
Высота : 304 пикселя
Соотношение сторон : 2,35:1
Частота кадров : 23,976 (24000/1001) кадра/сек
Цветовое пространство : YUV
Субдискретизация насыщенности : 4:2:0
Битовая глубина : 8 бит
Тип развёртки : Прогрессивная
Метод сжатия : С потерями
Бит/(Пиксели*Кадры) : 0.267
Размер потока : 1,28 Гбайт (87%)
Библиотека кодирования : XviD 73
Аудио
Идентификатор : 1
Формат : AC-3
Формат/Информация : Audio Coding 3
Коммерческое название : Dolby Digital
Идентификатор кодека : 2000
Продолжительность : 2 ч. 10 м.
Вид битрейта : Постоянный
Битрейт : 192 Кбит/сек
Каналы : 2 канала
ChannelLayout : L R
Частота : 48,0 КГц
Частота кадров : 31,250 кадров/сек (1536 SPF)
Битовая глубина : 16 бит
Метод сжатия : С потерями
Размер потока : 179 Мбайт (12%)
Выравнивание : Разделение по промежуткам
Продолжительность промежутка : 42 мс. (1,00 видеокадр)
Время предзагрузки промежутка : 500 мс.
ServiceKind/String : Complete Main

Скриншоты


[opentorrent.pro].t3394.torrent 
Торрент: Зарегистрирован [ 2019-06-05 15:34 ] · 39BBCC5FEC71A2544BD2C3885310F7FC6E6B6F4A

Скачать .torrent

Скачать

15 KB

Статус: проверено
Скачан: 0 раз
Размер: 1,46 GB  ·  Тип торрента
terms.php
Профиль [ЛС]
Показать сообщения:    

Текущее время: 29-Май 16:11

Часовой пояс: UTC ± 0



Вы не можете начинать темы
Вы не можете отвечать на сообщения
Вы не можете редактировать свои сообщения
Вы не можете удалять свои сообщения
Вы не можете голосовать в опросах
Вы не можете прикреплять файлы к сообщениям
Вы можете скачивать файлы