Статистика раздачи
Размер:  2,18 GB   |    Зарегистрирован:  1 год 1 месяц   |    Скачан:  0 раз
DL-List: Нет

Полного источника не было: Никогда

 
     
 
 

солнышко ®

Пол:
Не указан
Стаж:
1 год 4 месяца
Сообщений:
720

Во имя спасения / Время расцвета / Den blomstertid nu kommer / The Unthinkable
Страна: Швеция
Жанр: боевик, триллер, драма, мелодрама
Год выпуска: 2018
Продолжительность: 02:09:19
Перевод: Профессиональный (дублированный) | iTunes
Субтитры: Русские (форс), Шведские (SDH), английские (полные)
Оригинальная аудиодорожка: шведский-Режиссер: Виктор Данелл / Victor Danell-В ролях: Кристоффер Нурденрут, Лиза Хенни, Йеспер Баркселиус, Пиа Хальворсен, Магнус Сандберг, Кристер Керн, Карин Бертлинг, Ульрика Бэкстром, Алексей Манвелов, Ингве Далберг-Описание: 2005 год. Алекс живёт в деревне со своим агрессивным отцом Бьёрном. Мать уходит из семьи, а ближайшая подруга Алекса, Анна, переезжает в Стокгольм. Алекс решает уйти из дома и переезжает к родственнику.
Прошло 10 лет. Теперь Алекс живёт в Стокгольме, он известный пианист. В середине лета в Стокгольме раздаются многократные взрывы. Алекс решает вернуться в родную деревню, где он снова встречает Анну. Тем временем, в стране неспокойная обстановка - происходят нападения на людей, происходят сбои в электроснабжении и мобильной связи, да ещё и лето выдалось дождливое. Дождь странно влияет на людей - люди теряют рассудок и воспоминания. Кто же стоит за этими атаками?- -Качество видео: BDRip | DEN_BLOMSTERTID_NK_2018_BLUEBIRD
Формат видео: AVI
Видео: 720x304 (2.37:1), 23.976 fps, XviD build 73 ~1644 kbps avg, 0.31 bit/pixel
Аудио 1: 48 kHz, AC3 Dolby Digital, 3/2 (L,C,R,l,r) + LFE ch, ~384 kbps | RUS
Аудио 2: 48 kHz, AC3 Dolby Digital, 3/2 (L,C,R,l,r) + LFE ch, ~384 kbps | SWE-Сэмпл-

MediaInfo

Код:Формат : AVI
Формат/Информация : Audio Video Interleave
Профиль формата : OpenDML
Размер файла : 2,18 Гбайт
Продолжительность : 2 ч. 9 м.
Общий поток : 2418 Кбит/сек
Название фильма : Во имя спасения_2018_BDRip_[2.18]
Программа кодирования : VirtualDubMod 1.5.10.3 | www.virtualdub-fr.org || (build 2550/release)
Авторское право : порошков
Видео
Идентификатор : 0
Формат : MPEG-4 Visual
Профиль формата : Advanced Simple@L5
Настройки формата : BVOP1 / Custom Matrix
Параметр BVOP формата : 1
Параметр QPel формата : Нет
Параметр GMC формата : Без точки перехода
Параметр матрицы формата : Выборочная
Идентификатор кодека : XVID
Идентификатор кодека/Подсказка : XviD
Продолжительность : 2 ч. 9 м.
Битрейт : 1633 Кбит/сек
Ширина : 720 пикселей
Высота : 304 пикселя
Соотношение сторон : 2,35:1
Частота кадров : 23,976 (24000/1001) кадра/сек
Цветовое пространство : YUV
Субдискретизация насыщенности : 4:2:0
Битовая глубина : 8 бит
Тип развёртки : Прогрессивная
Метод сжатия : С потерями
Бит/(Пиксели*Кадры) : 0.311
Размер потока : 1,48 Гбайт (68%)
Библиотека кодирования : XviD 73
Аудио #1
Идентификатор : 1
Формат : AC-3
Формат/Информация : Audio Coding 3
Коммерческое название : Dolby Digital
Идентификатор кодека : 2000
Продолжительность : 2 ч. 9 м.
Вид битрейта : Постоянный
Битрейт : 384 Кбит/сек
Каналы : 6 каналов
ChannelLayout : L R C LFE Ls Rs
Частота : 48,0 КГц
Частота кадров : 31,250 кадров/сек (1536 SPF)
Битовая глубина : 16 бит
Метод сжатия : С потерями
Размер потока : 355 Мбайт (16%)
Выравнивание : Разделение по промежуткам
Продолжительность промежутка : 42 мс. (1,00 видеокадр)
Время предзагрузки промежутка : 500 мс.
Заголовок : Rus
ServiceKind/String : Complete Main
Аудио #2
Идентификатор : 2
Формат : AC-3
Формат/Информация : Audio Coding 3
Коммерческое название : Dolby Digital
Идентификатор кодека : 2000
Продолжительность : 2 ч. 9 м.
Вид битрейта : Постоянный
Битрейт : 384 Кбит/сек
Каналы : 6 каналов
ChannelLayout : L R C LFE Ls Rs
Частота : 48,0 КГц
Частота кадров : 31,250 кадров/сек (1536 SPF)
Битовая глубина : 16 бит
Метод сжатия : С потерями
Размер потока : 355 Мбайт (16%)
Выравнивание : Разделение по промежуткам
Продолжительность промежутка : 42 мс. (1,00 видеокадр)
Время предзагрузки промежутка : 500 мс.
Заголовок : Swe
ServiceKind/String : Complete Main

Скриншоты


[opentorrent.pro].t3398.torrent 
Торрент: Зарегистрирован [ 2019-06-05 15:34 ] · 6A795702433D23CD8EE9C22D39F6ECC02772E561

Скачать .torrent

Скачать

12 KB

Статус: проверено
Скачан: 0 раз
Размер: 2,18 GB  ·  Тип торрента
terms.php
Профиль [ЛС]
Показать сообщения:    

Текущее время: 03-Авг 10:00

Часовой пояс: UTC ± 0



Вы не можете начинать темы
Вы не можете отвечать на сообщения
Вы не можете редактировать свои сообщения
Вы не можете удалять свои сообщения
Вы не можете голосовать в опросах
Вы не можете прикреплять файлы к сообщениям
Вы можете скачивать файлы