Статистика раздачи
Размер:  1,46 GB   |    Зарегистрирован:  11 месяцев 20 дней   |    Скачан:  0 раз
DL-List: Нет

Полного источника не было: Никогда

 
     
 
 

serzh ®

Пол:
Не указан
Стаж:
1 год 2 месяца
Сообщений:
442

Рэмбо: Первая кровь / First Blood- Страна: США
Жанр: боевик, драма
Год выпуска: 1982
Продолжительность: 01:33:16-Перевод: Студийный (одноголосый, закадровый) Мосфильм [Текст читал Тимофей Спивак]
Субтитры: нет-Режиссер: Тед Котчефф / Ted Kotcheff-В ролях: Сильвестр Сталлоне, Ричард Кренна, Брайан Деннехи, Билл МакКинни, Джек Старретт, Майкл Толбот, Крис Малки, Джон МакЛиам, Альф Хамфриз, Дэвид Карузо-Описание: Он - эксперт. Эксперт по оружию, ножам и собственному телу. Он человек, специально обученный не замечать боль и погодные условия. Во Вьетнаме его задание было уничтожать вражеский личный состав... На войне он был героем, а на родине он никому не нужен. Не способный приспособиться к мирной жизни Рэмбо путешествует по стране, но его задерживает провинциальный шериф, ненавидящий бродяг. Попавший в тюрьму и вкусивший унижений со стороны полиции, Рэмбо объявляет войну беспределу официальных структур и главе местной полиции лично.-Сэмпл: https://www.sendspace.com/file/rhtond-Качество видео: BDRip
Формат видео: AVI
Видео: 704x304 (2.32:1), 23.976 fps, XviD build 65 ~2035 kbps avg, 0.39 bit/pixel
Аудио: 48.0 KHz, AC3, 2 channels (L, R) ~ 192 kbps-

Благодарности

Автор рипа - xAlhimx, за дорожку благодарим xfiles, за синхронизацию - mister55555

MediaInfo

Общее
Полное имя : D:\Рэмбо. Первая кровь.avi
Формат : AVI
Формат/Информация : Audio Video Interleave
Размер файла : 1,46 Гбайт
Продолжительность : 1 ч. 33 м.
Общий поток : 2237 Кбит/сек
Программа кодирования : VirtualDubMod 1.5.10.2 (build 2540/release)
Библиотека кодирования : VirtualDubMod build 2540/release
Видео
Идентификатор : 0
Формат : MPEG-4 Visual
Профиль формата : Advanced Simple@L5
Настройки формата : BVOP1 / Custom Matrix
Параметр BVOP формата : 1
Параметр QPel формата : Нет
Параметр GMC формата : Без точки перехода
Параметр матрицы формата : Выборочная
Идентификатор кодека : XVID
Идентификатор кодека/Подсказка : XviD
Продолжительность : 1 ч. 33 м.
Битрейт : 2035 Кбит/сек
Ширина : 704 пикселя
Высота : 304 пикселя
Соотношение сторон : 2,35:1
Частота кадров : 23,976 (24000/1001) кадра/сек
Цветовое пространство : YUV
Субдискретизация насыщенности : 4:2:0
Битовая глубина : 8 бит
Тип развёртки : Прогрессивная
Метод сжатия : С потерями
Бит/(Пиксели*Кадры) : 0.397
Размер потока : 1,33 Гбайт (91%)
Библиотека кодирования : XviD 65
Аудио
Идентификатор : 1
Формат : AC-3
Формат/Информация : Audio Coding 3
Коммерческое название : Dolby Digital
Идентификатор кодека : 2000
Продолжительность : 1 ч. 33 м.
Вид битрейта : Постоянный
Битрейт : 192 Кбит/сек
Каналы : 2 канала
Channel layout : L R
Частота : 48,0 КГц
Частота кадров : 31,250 кадров/сек (1536 SPF)
Битовая глубина : 16 бит
Метод сжатия : С потерями
Размер потока : 128 Мбайт (9%)
Выравнивание : Разделение по промежуткам
Продолжительность промежутка : 42 мс. (1,00 видеокадр)
Время предзагрузки промежутка : 500 мс.
ServiceKind/String : Complete Main

Скриншоты

[opentorrent.pro].t3400.torrent 
Торрент: Зарегистрирован [ 2019-06-05 15:34 ] · B6D1BAC0009CF4DB71ECBF6E0DDA6368917381A4

Скачать .torrent

Скачать

15 KB

Статус: проверено
Скачан: 0 раз
Размер: 1,46 GB  ·  Тип торрента
terms.php
Профиль [ЛС]
Показать сообщения:    

Текущее время: 26-Май 04:31

Часовой пояс: UTC ± 0



Вы не можете начинать темы
Вы не можете отвечать на сообщения
Вы не можете редактировать свои сообщения
Вы не можете удалять свои сообщения
Вы не можете голосовать в опросах
Вы не можете прикреплять файлы к сообщениям
Вы можете скачивать файлы