Статистика раздачи
Размер:  760 MB   |    Зарегистрирован:  1 год 1 месяц   |    Скачан:  0 раз
DL-List: Нет

Полного источника не было: Никогда

 
     
 
 

Гость ®

Пол:
Не указан

Сан-Мартин. Переход через Анды / Revolución: El cruce de los Andes
Страна: Аргентина
Жанр: военный, исторический
Год выпуска: 2011
Продолжительность: 01:31:31
Перевод: Субтитры
Субтитры: русские - enoeno
Оригинальная аудиодорожка: испанский
Режиссер: Леандро Ипинья / Leandro Ipiña
В ролях: Родриго Де ла Серна, Хуан Сиансио, Леон Догодни, Мартин Родригес, Альфредо Кастельяни
Описание: История пятнадцатилетнего юноши Мануэля Корвалана, который принимает решение оставить свою семью, чтобы присоединиться к только что сформированной Андской армии, предназначенной для освобождения Чили от войск роялистов, вместе с которой, исполняя обязанности личного писаря командующего генерала Хосе де Сан-Мартина, в январе - феврале 1817 года участвует в переходе через Анды и последующем сражении при Чакабуко.
Эти события навсегда меняют его жизнь.
Доп. информация: Перевод и редактирование субтитров - enoeno
Некоторые места из переписки Сан-Мартина и Верховного правителя Объединенных провинций
Ла Платы (будущая Аргентина) Пуэйрредона уточнены по историческим документам.
Сэмпл: http://sendfile.su/1497235
Качество видео: DVDRip
Формат видео: AVI
Видео: MPEG-4, 1023 Кбит/сек, 672 x 368 (1.826) at 25.000 fps
Аудио: AC-3 at 128 Кбит/сек, 2 канала, 48,0 КГц
Формат субтитров: softsub (отключаемые)

Субтитры

1
00:00:29,875 --> 00:00:33,075
В 1808 году королевская Испания
рушится под ударом Наполеона.
2
00:00:33,075 --> 00:00:36,675
Это известие достигает
американских колоний.
3
00:00:38,275 --> 00:00:42,235
Конец колониализма - это уже не
мечта американских народов,
4
00:00:42,275 --> 00:00:47,315
которые, почти одновременно,
подняли восстания и создали
свои собственные правительства.
5
00:00:48,835 --> 00:00:54,555
Но революция может победить,
только ведя войну.
6
00:00:55,635 --> 00:00:59,955
Контрреволюция в самые короткие сроки
сумела восстановить старую систему
7
00:00:59,955 --> 00:01:02,275
с помощью крови и огня.
8
00:01:03,795 --> 00:01:07,995
К 1815 году только
Объединенные Провинции
Рио-де-ла-Платы
9
00:01:08,155 --> 00:01:09,875
сохранили независимость.
10
00:01:11,675 --> 00:01:17,795
В Куйо, изолированном бедном регионе
генерал Хосе Франсиско де Сан-Мартин
11
00:01:17,795 --> 00:01:20,275
под своим командованием собирает и обучает
12
00:01:20,275 --> 00:01:23,635
армию в пять тысяч двести человек,
13
00:01:23,675 --> 00:01:26,675
чтобы пересечь Анды и освободить Чили.
14
00:01:26,675 --> 00:01:28,675
Это первый шаг большего плана:
15
00:01:29,955 --> 00:01:32,715
принести свободу всему континенту.

MediaInfo

Общее
Полное имя : I:\San_Martin_El_cruce_de_Los_Andes\San_Martin_El_cruce_de_Los_Andes.avi
Формат : AVI
Формат/Информация : Audio Video Interleave
Размер файла : 760 Мбайт
Продолжительность : 1 ч. 31 м.
Общий поток : 1161 Кбит/сек
Программа кодирования : VirtualDubMod 1.5.4.1 (build 2178/release)
Библиотека кодирования : VirtualDubMod build 2178/release
Видео
Идентификатор : 0
Формат : MPEG-4 Visual
Профиль формата : Simple@L3
Параметр BVOP формата : Нет
Параметр QPel формата : Нет
Параметр GMC формата : Без точки перехода
Параметр матрицы формата : Default (H.263)
Идентификатор кодека : XVID
Идентификатор кодека/Подсказка : XviD
Продолжительность : 1 ч. 31 м.
Битрейт : 1023 Кбит/сек
Ширина : 672 пикселя
Высота : 368 пикселей
Соотношение сторон : 1,85:1
Частота кадров : 25,000 кадров/сек
Цветовое пространство : YUV
Субдискретизация насыщенности : 4:2:0
Битовая глубина : 8 бит
Тип развёртки : Прогрессивная
Метод сжатия : С потерями
Бит/(Пиксели*Кадры) : 0.165
Размер потока : 670 Мбайт (88%)
Библиотека кодирования : XviD 63
Аудио
Идентификатор : 1
Формат : AC-3
Формат/Информация : Audio Coding 3
Расширение режима : CM (complete main)
Параметр Endianness формата : Big
Идентификатор кодека : 2000
Продолжительность : 1 ч. 31 м.
Вид битрейта : Постоянный
Битрейт : 128 Кбит/сек
Каналы : 2 канала
Расположение каналов : Front: L R
Частота : 48,0 КГц
Битовая глубина : 16 бит
Метод сжатия : С потерями
Размер потока : 83,8 Мбайт (11%)
Выравнивание : Разделение по промежуткам
Продолжительность промежутка : 40 мс. (1,00 видеокадр)
Время предзагрузки промежутка : 500 мс.

Скриншот c названием фильма

Скриншоты








Мои раздачи

Мои раздачи
[opentorrent.pro].t3402.torrent 
Торрент: Зарегистрирован [ 2019-06-06 15:59 ] · 51151C3D91755E31545D9FAFCFD1BCF6AF514708

Скачать .torrent

Скачать

16 KB

Статус: проверено
Скачан: 0 раз
Размер: 760 MB  ·  Тип торрента
terms.php
Показать сообщения:    

Текущее время: 09-Июл 12:14

Часовой пояс: UTC ± 0



Вы не можете начинать темы
Вы не можете отвечать на сообщения
Вы не можете редактировать свои сообщения
Вы не можете удалять свои сообщения
Вы не можете голосовать в опросах
Вы не можете прикреплять файлы к сообщениям
Вы можете скачивать файлы