Статистика раздачи
Размер:  1,46 GB   |    Зарегистрирован:  1 год 1 месяц   |    Скачан:  0 раз
DL-List: Нет

Полного источника не было: Никогда

 
     
 
 

Гость ®

Пол:
Не указан

Коридор бессмертия
Страна: Россия
Жанр: драма, военный, история
Год выпуска: 2019
Продолжительность: 02:19:55
Субтитры: нет-Режиссер: Федор Попов-В ролях: Артем Алексеев, Анастасия Цибизова, Игорь Ясулович, Артём Мельничук, Александр Яценко, Дарья Екамасова, Анатолий Горячев, Александр Обласов, Светлана Смирнова-Кацагаджиева, Тагир Рахимов-Описание: Вчерашняя ленинградская школьница Маша Яблочкина после лютой блокадной зимы 1941-1942 года приходит на железнодорожные курсы в надежде выжить и набраться сил. Оттуда девушку отправляют на строительство Шлиссельбургской магистрали, соединяющей город с Большой землей и находящейся в прямой видимости немецкой артиллерии. Так героиня попадает в 48-ю паровозную колонну особого резерва НКПС, которой ценой смертельного риска предстоит доставить в Ленинград 75% всех грузов и военного снаряжения.- -Качество видео: WEB-DLRip
Формат видео: AVI
Видео: 704x288 (2.44:1), 23.976 fps, XviD build 73 ~1293 kbps avg, 0.27 bit/pixel
Аудио: 48 kHz, AC3 Dolby Digital, 2/0 (L,R) ch, ~192 kbps - iTunes-Сэмпл-

MediaInfo

Код:Формат : AVI
Формат/Информация : Audio Video Interleave
Размер файла : 1,46 Гбайт
Продолжительность : 2 ч. 19 м.
Общий поток : 1495 Кбит/сек
Программа кодирования : VirtualDubMod 1.5.10.3 | www.virtualdub-fr.org || (build 2550/release)
Библиотека кодирования : VirtualDubMod build 2550/release
Видео
Идентификатор : 0
Формат : MPEG-4 Visual
Профиль формата : Advanced Simple@L5
Настройки формата : BVOP1 / Custom Matrix
Параметр BVOP формата : 1
Параметр QPel формата : Нет
Параметр GMC формата : Без точки перехода
Параметр матрицы формата : Выборочная
Идентификатор кодека : XVID
Идентификатор кодека/Подсказка : XviD
Продолжительность : 2 ч. 19 м.
Битрейт : 1294 Кбит/сек
Ширина : 704 пикселя
Высота : 288 пикселей
Соотношение сторон : 2,40:1
Частота кадров : 23,976 (24000/1001) кадра/сек
Цветовое пространство : YUV
Субдискретизация насыщенности : 4:2:0
Битовая глубина : 8 бит
Тип развёртки : Прогрессивная
Метод сжатия : С потерями
Бит/(Пиксели*Кадры) : 0.266
Размер потока : 1,26 Гбайт (87%)
Библиотека кодирования : XviD 73
Аудио
Идентификатор : 1
Формат : AC-3
Формат/Информация : Audio Coding 3
Коммерческое название : Dolby Digital
Идентификатор кодека : 2000
Продолжительность : 2 ч. 19 м.
Вид битрейта : Постоянный
Битрейт : 192 Кбит/сек
Каналы : 2 канала
ChannelLayout : L R
Частота : 48,0 КГц
Частота кадров : 31,250 кадров/сек (1536 SPF)
Битовая глубина : 16 бит
Метод сжатия : С потерями
Размер потока : 192 Мбайт (13%)
Выравнивание : Разделение по промежуткам
Продолжительность промежутка : 42 мс. (1,00 видеокадр)
Время предзагрузки промежутка : 500 мс.
ServiceKind/String : Complete Main

Скриншоты


[opentorrent.pro].t3406.torrent 
Торрент: Зарегистрирован [ 2019-06-06 15:59 ] · 71AD115AC95B3E6257807A326AAE2EB935957D6B

Скачать .torrent

Скачать

15 KB

Статус: проверено
Скачан: 0 раз
Размер: 1,46 GB  ·  Тип торрента
terms.php
Показать сообщения:    

Текущее время: 03-Авг 14:45

Часовой пояс: UTC ± 0



Вы не можете начинать темы
Вы не можете отвечать на сообщения
Вы не можете редактировать свои сообщения
Вы не можете удалять свои сообщения
Вы не можете голосовать в опросах
Вы не можете прикреплять файлы к сообщениям
Вы можете скачивать файлы