Статистика раздачи
Размер:  950 MB   |    Зарегистрирован:  1 год 1 месяц   |    Скачан:  0 раз
DL-List: Нет
Сидов:  1  [  0 KB/s  ]  
 
     
 
 

serzh ®

Пол:
Не указан
Стаж:
1 год 4 месяца
Сообщений:
442

Лето в раковине 2 / Poletje v skoljki 2
Страна: Югославия
Жанр: комедия, музыка, семейный
Год выпуска: 1988
Продолжительность: 01:32:10
Перевод: Одноголосый закадровый Владимир Ларин / DK 911
Субтитры: нет
Режиссер: Туго Штиглиц / Tugo Štiglic
В ролях: Дэвид Слуга, Кайя Штиглиц, Весна Евникар, Мила Качич, Марьяна Карнер, Борис Краль, Ерца Мрзел, Майда Потокар, Златко Сугман, Даре Валич...
Описание: Продолжение фильма «Лето в раковине».
С событий первого фильма прошло 2 с лишним года. Томаш приезжает к своей подруге Милене в Любляну и становится свидетелем того, как труппа молодых танцоров пытается отвоевать здание клуба, которое власти города хотят превратить в хранилище для документов.
Доп. информация: http://www.kinopoisk.ru/film/106396/
Благодарности:
dvdbox - за исходник и вообще за раздачу фильма, который искал лет 20
Ussury22 - за текст перевода
Сэмпл: https://www.sendspace.com/file/6ydv9p
Качество видео: DVDRip
Формат видео: MKV
Видео: V_MPEG4/ISO/AVC, 714х572, 5:3, 25,000 кадров/сек, 1119 Кбит/сек
Аудио: A_AC3, 48 kHz, 320 Кбит/сек, 2 канала (L/R), русский

MediaInfo

Общее
Уникальный идентификатор : 90115149100884308137930103201744172659 (0x43CB8BE18068E7332DDD42F3616E3673)
Полное имя : D:\Кино\POLETJE_V_SKOLJKI_2-1988\Leto v rakovine 2 (1988).mkv
Формат : Matroska
Версия формата : Version 4
Размер файла : 950 Мбайт
Продолжительность : 1 ч. 32 м.
Общий поток : 1441 Кбит/сек
Дата кодирования : UTC 2019-06-05 08:35:40
Программа кодирования : mkvmerge v34.0.0 ('Sight and Seen') 64-bit
Библиотека кодирования : libebml v1.3.7 + libmatroska v1.5.0 / Lavf58.20.100
Видео
Идентификатор : 2
Формат : AVC
Формат/Информация : Advanced Video Codec
Профиль формата : Main@L4
Настройки формата : CABAC / 4 Ref Frames
Параметр CABAC формата : Да
Параметр RefFrames формата : 4 кадра
Идентификатор кодека : V_MPEG4/ISO/AVC
Продолжительность : 1 ч. 32 м.
Битрейт : 1119 Кбит/сек
Ширина : 714 пикселей
Высота : 452 пикселя
Соотношение сторон : 5:3
Режим частоты кадров : Постоянный
Частота кадров : 25,000 кадров/сек
Цветовое пространство : YUV
Субдискретизация насыщенности : 4:2:0
Битовая глубина : 8 бит
Тип развёртки : Прогрессивная
Бит/(Пиксели*Кадры) : 0.139
Размер потока : 738 Мбайт (78%)
Библиотека кодирования : x264 core 157 r2935 545de2f
Настройки программы : cabac=1 / ref=2 / deblock=1:0:0 / analyse=0x1:0x111 / me=hex / subme=6 / psy=1 / psy_rd=1.00:0.00 / mixed_ref=1 / me_range=16 / chroma_me=1 / trellis=1 / 8x8dct=0 / cqm=0 / deadzone=21,11 / fast_pskip=1 / chroma_qp_offset=-2 / threads=6 / lookahead_threads=1 / sliced_threads=0 / nr=0 / decimate=1 / interlaced=0 / bluray_compat=0 / constrained_intra=0 / bframes=3 / b_pyramid=2 / b_adapt=1 / b_bias=0 / direct=1 / weightb=1 / open_gop=0 / weightp=1 / keyint=250 / keyint_min=25 / scenecut=40 / intra_refresh=0 / rc_lookahead=30 / rc=crf / mbtree=1 / crf=22.0 / qcomp=0.60 / qpmin=0 / qpmax=69 / qpstep=4 / vbv_maxrate=20000 / vbv_bufsize=25000 / crf_max=0.0 / nal_hrd=none / filler=0 / ip_ratio=1.40 / aq=1:1.00
Default : Да
Forced : Нет
Цветовой диапазон : Limited
Основные цвета : BT.601 PAL
Характеристики трансфера : BT.709
Коэффициенты матрицы : BT.601
Аудио
Идентификатор : 1
Формат : AC-3
Формат/Информация : Audio Coding 3
Коммерческое название : Dolby Digital
Идентификатор кодека : A_AC3
Продолжительность : 1 ч. 32 м.
Вид битрейта : Постоянный
Битрейт : 320 Кбит/сек
Каналы : 2 канала
ChannelLayout : L R
Частота : 48,0 КГц
Частота кадров : 31,250 кадров/сек (1536 SPF)
Битовая глубина : 16 бит
Метод сжатия : С потерями
Задержка видео : -101 мс.
Размер потока : 211 Мбайт (22%)
Язык : Russian
ServiceKind/String : Complete Main
Default : Да
Forced : Нет
Меню
00:00:00.080 : :Chapter 1
00:05:00.080 : :Chapter 2
00:08:31.880 : :Chapter 3
00:21:36.080 : :Chapter 4
00:25:03.680 : :Chapter 5
00:36:55.280 : :Chapter 6
00:44:42.080 : :Chapter 7
00:54:44.480 : :Chapter 8
01:00:01.280 : :Chapter 9
01:04:18.680 : :Chapter 10
01:19:18.680 : :Chapter 11
01:22:25.280 : :Chapter 12

Скриншот c названием фильма

Скриншоты

[opentorrent.pro].t3408.torrent 
Торрент: Зарегистрирован [ 2019-06-06 15:59 ] · C45876E1E3C652722807F5C213056B08F53764CF

Скачать .torrent

Скачать

19 KB

Статус: проверено
Скачан: 0 раз
Размер: 950 MB  ·  Тип торрента
terms.php
Профиль [ЛС]
Показать сообщения:    

Текущее время: 05-Авг 21:44

Часовой пояс: UTC ± 0



Вы не можете начинать темы
Вы не можете отвечать на сообщения
Вы не можете редактировать свои сообщения
Вы не можете удалять свои сообщения
Вы не можете голосовать в опросах
Вы не можете прикреплять файлы к сообщениям
Вы можете скачивать файлы