Статистика раздачи
Размер:  751 MB   |    Зарегистрирован:  11 месяцев 24 дня   |    Скачан:  0 раз
DL-List: Нет

Полного источника не было: Никогда

 
     
 
 

Гость ®

Пол:
Не указан

Гуманитарные науки / Liberal Arts
Страна: США
Жанр: драма, комедия
Год выпуска: 2012
Продолжительность: 01:37:16
Перевод: Профессиональный (многоголосый закадровый) Кинопоказ
Субтитры: нет
Оригинальная аудиодорожка: нет
Режиссер: Джош Рэднор / Josh Radnor
В ролях: Джош Рэднор, Элизабет Олсен, Зак Эфрон, Ричард Дженкинс, Эллисон Джэнни, Элизабет Ризер, Джон Магаро, Кейт Бертон, Роберт Десидерио, Кристен Буш, Али Ан, Нед Донис, Грегг Эдельман...
Описание: "Гуманитарные науки" - это история о том, как молодое поколение может быть лучшим учителем для взрослого человека. Ей - семнадцать. Ему - два раза по семнадцать. Что получится из такого мизальянса? Станет ли главный герой вторым Гумбертом?? Бородатый красавчик Джош Рэднор снял свой второй по счету полнометражный фильм, где также исполнил главную роль. Его партнершей выступила молодая и перспективная Лисбет Олсен. Интеллектуальное, современное, слегка элегичное и невероятно романтичное кино в вудиалленовском стиле для думающей аудитории (30+) - Авт.
Сэмпл: https://yadi.sk/i/vjqaFl_XDXzSSQ
Качество видео: HDRip
Формат видео: AVI
Видео: XviD, 640x272 (2.35:1), 23.976 fps, ~940 kbps avg, 0.226 bit/pixel
Аудио: MP3, 48.0 KHz, stereo, 128kbps, 2 ch., MPEG Audio

MediaInfo

General
Complete name : D:\Liberal Arts (2012) HDRip by Waldo.avi
Format : AVI
Format/Info : Audio Video Interleave
File size : 751 MiB
Duration : 1 h 37 min
Overall bit rate : 1 079 kb/s
Writing application : VirtualDubMod 1.5.10.3 | www.virtualdub-fr.org || (build 2550/release)
Writing library : VirtualDubMod build 2550/release
Video
ID : 0
Format : MPEG-4 Visual
Format profile : Advanced Simple@L5
Format settings, BVOP : 1
Format settings, QPel : No
Format settings, GMC : No warppoints
Format settings, Matrix : Custom
Codec ID : XVID
Codec ID/Hint : XviD
Duration : 1 h 37 min
Bit rate : 942 kb/s
Width : 640 pixels
Height : 272 pixels
Display aspect ratio : 2.35:1
Frame rate : 23.976 (24000/1001) FPS
Color space : YUV
Chroma subsampling : 4:2:0
Bit depth : 8 bits
Scan type : Progressive
Compression mode : Lossy
Bits/(Pixel*Frame) : 0.226
Stream size : 655 MiB (87%)
Writing library : XviD 73
Audio
ID : 1
Format : MPEG Audio
Format version : Version 1
Format profile : Layer 3
Codec ID : 55
Codec ID/Hint : MP3
Duration : 1 h 37 min
Bit rate mode : Constant
Bit rate : 128 kb/s
Channel(s) : 2 channels
Sampling rate : 48.0 kHz
Compression mode : Lossy
Stream size : 89.1 MiB (12%)
Alignment : Aligned on interleaves
Interleave, duration : 42 ms (1.00 video frame)
Interleave, preload duratio : 504 ms
Writing library : LAME3.99r
Encoding settings : -m s -V 4 -q 2 -lowpass 17 -b 128

Скриншот c названием фильма

Скриншоты

[opentorrent.pro].t3410.torrent 
Торрент: Зарегистрирован [ 2019-06-06 15:59 ] · 03225BD7BB0603F98022B3AD01A434F4AAF343DA

Скачать .torrent

Скачать

15 KB

Статус: проверено
Скачан: 0 раз
Размер: 751 MB  ·  Тип торрента
terms.php
Показать сообщения:    

Текущее время: 31-Май 05:53

Часовой пояс: UTC ± 0



Вы не можете начинать темы
Вы не можете отвечать на сообщения
Вы не можете редактировать свои сообщения
Вы не можете удалять свои сообщения
Вы не можете голосовать в опросах
Вы не можете прикреплять файлы к сообщениям
Вы можете скачивать файлы