Статистика раздачи
Размер:  2,18 GB   |    Зарегистрирован:  11 месяцев   |    Скачан:  0 раз
DL-List: Нет

Полного источника не было: Никогда

 
     
 
 

Гость ®

Пол:
Не указан

Коридор бессмертия
Страна: Россия
Жанр: драма, военный, история
Год выпуска: 2019
Продолжительность: 02:19:55
Субтитры: нет-Режиссер: Федор Попов-В ролях: Артем Алексеев, Анастасия Цибизова, Игорь Ясулович, Артём Мельничук, Александр Яценко, Дарья Екамасова, Анатолий Горячев, Александр Обласов, Светлана Смирнова-Кацагаджиева, Тагир Рахимов-Описание: Вчерашняя ленинградская школьница Маша Яблочкина после лютой блокадной зимы 1941-1942 года приходит на железнодорожные курсы в надежде выжить и набраться сил. Оттуда девушку отправляют на строительство Шлиссельбургской магистрали, соединяющей город с Большой землей и находящейся в прямой видимости немецкой артиллерии. Так героиня попадает в 48-ю паровозную колонну особого резерва НКПС, которой ценой смертельного риска предстоит доставить в Ленинград 75% всех грузов и военного снаряжения.- -Качество видео: WEB-DLRip
Формат видео: AVI
Видео: 704x288 (2.44:1), 23.976 fps, XviD build 73 ~1841 kbps avg, 0.38 bit/pixel
Аудио: 48 kHz, AC3 Dolby Digital, 3/2 (L,C,R,l,r) + LFE ch, ~384 kbps - iTunes-Сэмпл-

MediaInfo

Код:Формат : AVI
Формат/Информация : Audio Video Interleave
Профиль формата : OpenDML
Размер файла : 2,18 Гбайт
Продолжительность : 2 ч. 19 м.
Общий поток : 2232 Кбит/сек
Название фильма : Коридор бессмертия_2019_WEB-DLRip_[2.18]
Программа кодирования : VirtualDubMod 1.5.10.3 | www.virtualdub-fr.org || (build 2550/release)
Авторское право : порошков
Видео
Идентификатор : 0
Формат : MPEG-4 Visual
Профиль формата : Advanced Simple@L5
Настройки формата : BVOP1 / Custom Matrix
Параметр BVOP формата : 1
Параметр QPel формата : Нет
Параметр GMC формата : Без точки перехода
Параметр матрицы формата : Выборочная
Идентификатор кодека : XVID
Идентификатор кодека/Подсказка : XviD
Продолжительность : 2 ч. 19 м.
Битрейт : 1836 Кбит/сек
Ширина : 704 пикселя
Высота : 288 пикселей
Соотношение сторон : 2,40:1
Частота кадров : 23,976 (24000/1001) кадра/сек
Цветовое пространство : YUV
Субдискретизация насыщенности : 4:2:0
Битовая глубина : 8 бит
Тип развёртки : Прогрессивная
Метод сжатия : С потерями
Бит/(Пиксели*Кадры) : 0.378
Размер потока : 1,79 Гбайт (82%)
Библиотека кодирования : XviD 73
Аудио
Идентификатор : 1
Формат : AC-3
Формат/Информация : Audio Coding 3
Коммерческое название : Dolby Digital
Идентификатор кодека : 2000
Продолжительность : 2 ч. 19 м.
Вид битрейта : Постоянный
Битрейт : 384 Кбит/сек
Каналы : 6 каналов
ChannelLayout : L R C LFE Ls Rs
Частота : 48,0 КГц
Частота кадров : 31,250 кадров/сек (1536 SPF)
Битовая глубина : 16 бит
Метод сжатия : С потерями
Размер потока : 384 Мбайт (17%)
Выравнивание : Разделение по промежуткам
Продолжительность промежутка : 42 мс. (1,00 видеокадр)
Время предзагрузки промежутка : 500 мс.
ServiceKind/String : Complete Main

Скриншоты


[opentorrent.pro].t3411.torrent 
Торрент: Зарегистрирован [ 2019-06-06 15:59 ] · F822FA856D71579E5BC6FE00CF7E72A02E7D54AC

Скачать .torrent

Скачать

11 KB

Статус: проверено
Скачан: 0 раз
Размер: 2,18 GB  ·  Тип торрента
terms.php
Показать сообщения:    

Текущее время: 04-Июн 06:38

Часовой пояс: UTC ± 0



Вы не можете начинать темы
Вы не можете отвечать на сообщения
Вы не можете редактировать свои сообщения
Вы не можете удалять свои сообщения
Вы не можете голосовать в опросах
Вы не можете прикреплять файлы к сообщениям
Вы можете скачивать файлы