Статистика раздачи
Размер:  1,46 GB   |    Зарегистрирован:  1 год 2 месяца   |    Скачан:  0 раз
DL-List: Нет

Полного источника не было: Никогда

 
     
 
 

солнышко ®

Пол:
Не указан
Стаж:
1 год 4 месяца
Сообщений:
720

Язвы Бреслау / Plagi Breslau
Страна: Польша
Жанр: боевик, криминал
Год выпуска: 2018
Продолжительность: 01:33:01
Перевод: Одноголосый закадровый Михаил Чадов
Субтитры: нет
Режиссер: Патрик Вега / Patryk Vega
В ролях: Малгожата Кожуховска, Дария Видавска, Катажина Буякевич, Анджей Грабовский, Мария Деймек, Эва Каспшик, Яцек Белер, Войцех Калиновский
Описание: Мирный городок Вроцлав на протяжении длительного времени считался спокойным и уютным для туристов, впрочем и для местных жителей. Недавно, местечко подверглось шокирующим событиям. В городишке появился маньяк, который убивает с особой жестокостью. У него есть определенный почерк, ведь убийства происходят ежедневно в одно и то же время. Преступник достаточно ловок, он почти не оставляет следов и улик. Жертв все больше, а зацепок практически нет. Чтобы пролить свет на запутанный клубок событий, необходимо ловить маньяка на живца. Мрачная тайна будет разгадана, ведь за дело берется профессиональный полицейский Елена Русь....
Внимание : -- В фильме присутствует ненормативная лексика.
Сэмпл: http://multi-up.com/1233778
Качество видео: WEB-DLRip (Исходник Язвы Бреслау.WEB-DLRip 1080p.mkv)
Формат видео: AVI
Видео: XviD 73, 720x304, (2,35:1), 25.000 fps, 2014 Кбит/с, 8 бит,
Аудио: Русский (АС3, 2 ch (Front: L R), 48,0 KHz, 224 Kbps)

MediaInfo

Общее
Полное имя : D:\Фильмы на трекер\Язвы Бреслау (боевик, криминал 2018 год).avi
Формат : AVI
Формат/Информация : Audio Video Interleave
Размер файла : 1,46 Гбайт
Продолжительность : 1 ч. 33 м.
Общий поток : 2248 Кбит/сек
Программа кодирования : VirtualDubMod 1.5.10.3 | www.virtualdub-fr.org || (build 2550/release)
Библиотека кодирования : VirtualDubMod build 2550/release
Видео
Идентификатор : 0
Формат : MPEG-4 Visual
Профиль формата : Advanced Simple@L5
Параметр BVOP формата : 2
Параметр QPel формата : Нет
Параметр GMC формата : Без точки перехода
Параметр матрицы формата : Выборочная
Идентификатор кодека : XVID
Идентификатор кодека/Подсказка : XviD
Продолжительность : 1 ч. 33 м.
Битрейт : 2014 Кбит/сек
Ширина : 720 пикселей
Высота : 304 пикселя
Соотношение сторон : 2,35:1
Частота кадров : 25,000 кадров/сек
Цветовое пространство : YUV
Субдискретизация насыщенности : 4:2:0
Битовая глубина : 8 бит
Тип развёртки : Прогрессивная
Метод сжатия : С потерями
Бит/(Пиксели*Кадры) : 0.368
Размер потока : 1,31 Гбайт (90%)
Библиотека кодирования : XviD 73
Аудио
Идентификатор : 1
Формат : AC-3
Формат/Информация : Audio Coding 3
Расширение режима : CM (complete main)
Параметр Endianness формата : Big
Идентификатор кодека : 2000
Продолжительность : 1 ч. 33 м.
Вид битрейта : Постоянный
Битрейт : 224 Кбит/сек
Каналы : 2 канала
Расположение каналов : Front: L R
Частота : 48,0 КГц
Частота кадров : 31,250 кадров/сек (1536 spf)
Метод сжатия : С потерями
Размер потока : 149 Мбайт (10%)
Выравнивание : Разделение по промежуткам
Продолжительность промежутка : 40 мс. (1,00 видеокадр)
Время предзагрузки промежутка : 500 мс.

Скриншот c названием фильма

Скриншоты

[opentorrent.pro].t3419.torrent 
Торрент: Зарегистрирован [ 2019-06-06 15:59 ] · F4B8A9DCBF4547BAE4D05F2FCB3DC08B1D59DE28

Скачать .torrent

Скачать

15 KB

Статус: проверено
Скачан: 0 раз
Размер: 1,46 GB  ·  Тип торрента
terms.php
Профиль [ЛС]
Показать сообщения:    

Текущее время: 09-Авг 22:37

Часовой пояс: UTC ± 0



Вы не можете начинать темы
Вы не можете отвечать на сообщения
Вы не можете редактировать свои сообщения
Вы не можете удалять свои сообщения
Вы не можете голосовать в опросах
Вы не можете прикреплять файлы к сообщениям
Вы можете скачивать файлы