Статистика раздачи
Размер:  6,02 GB   |    Зарегистрирован:  1 год 1 месяц   |    Скачан:  0 раз
DL-List: Нет

Полного источника не было: Никогда

 
     
 
 

Гость ®

Пол:
Не указан

Морской волк (4 серии)
05/06/19 торрент обновлен, запись трансляции ТК "Звезда" заменена записью трансляции ТК "Ретро". Преимущества на сравнении. Продолжительность 01:31:04 + 01:05:53 + 01:02:21 + 01:10:36 против 01:29:41 + 01:04:20 + 01:00:55 + 01:08:53
06.06.19 торрент обновлен, в связи с повторной трансляцией заменены 3 и 4 серии. Банер 12+ только в начале фильма. Смотрим 1-й скрин

Жанр: драма
Год выпуска: 1990
Продолжительность: 01:31:04 + 01:05:53 + 01:02:21 + 01:10:36
Режиссёр: Игорь Апасян
В ролях: Любомирас Лауцявичюс, Андрей Руденский, Игорь Богодух, Игорь Божко, Мартиньш Вилсонс, Вадим Вильский, Виктор Гайнов, Николай Ерофеев, Сергей Королев, Игорь Лопухин-Полковник, Рудольф Мухин, Виктор Павловский, Алексей Серебряков, Анатолий Сливников, Елена Финогеева, Николай Чиндяйкин, Юрий Эллер
Описание: По мотивам одноимённого романа Джека Лондона.
Молодой литератор Хэмфри Ван-Вейден решил навестить друга. На пароме "Мартинес" он отплавает из Сан-Франциско на другую сторону залива. В тумане паром сталкиваются с большим судном и за считанные минуты тонет. Оказавшись в воде, Хэмфри быстро обессилел. Спасение пришло неожиданно. С проходящей мимо шхуны случайно заметили человека в воде. Так Хэмфри оказался на борту промысловой шхуны "Призрак", которой командовал капитан "Волк" Ларсен....
Доп. информация: запись потока *.ts со спутника ABS-2, 75° в.д., ремукс в *.mkv программой VideoReDo.
Качество видео: DVB
Формат видео: MKV
Видео: MPEG Video, 720(768)x576 (4:3), 25,000 кадров/сек, 2783 Кбит/сек
Аудио: MPEG Audio, 48,0 КГц, 128 Кбит/сек, 2 канала

MediaInfo

Общее
Уникальный идентификатор : 41557177131652022687303647090857446298 (0x1F439F05ED9697FF66A19A33F6BF8B9A)
Полное имя : D:\Torrent\МОРСКОЙ ВОЛК\МОРСКОЙ ВОЛК 01 (RETRO).mkv
Формат : Matroska
Версия формата : Version 2
Размер файла : 1,89 Гбайт
Продолжительность : 1 ч. 31 м.
Режим общего битрейта : Переменный
Общий поток : 2970 Кбит/сек
Программа кодирования : Lavf52.64.2
Библиотека кодирования : Lavf52.64.2
Видео
Идентификатор : 1
Формат : MPEG Video
Версия формата : Version 2
Профиль формата : Main@Main
Параметр BVOP формата : Да
Параметр матрицы формата : Выборочная
Параметр GOP формата : Variable
Структура изображения : Frame
Идентификатор кодека : V_MPEG2
Идентификатор кодека/Информация : MPEG 1 or 2 Video
Продолжительность : 1 ч. 31 м.
Вид битрейта : Переменный
Битрейт : 2783 Кбит/сек
Максимальный битрейт : 2880 Кбит/сек
Ширина : 720 пикселей
Высота : 576 пикселей
Соотношение сторон : 4:3
Соотношение сторон в оригинале : 4:3
Режим частоты кадров : Постоянный
Частота кадров : 25,000 кадров/сек
Стандарт вещания : PAL
Цветовое пространство : YUV
Субдискретизация насыщенности : 4:2:0
Битовая глубина : 8 бит
Тип развёртки : Чересстрочная
Порядок развёртки : Верхнее поле первое
Метод сжатия : С потерями
Бит/(Пиксели*Кадры) : 0.268
Временной код первого кадра : 00:00:00:00
Оригинал временного кода : Group of pictures header
GOP, открыто/закрыто : Открыто
Размер потока : 1,77 Гбайт (94%)
Default : Да
Forced : Нет
Аудио
Идентификатор : 2
Формат : MPEG Audio
Версия формата : Version 1
Профиль формата : Layer 2
Идентификатор кодека : A_MPEG/L2
Идентификатор кодека/Подсказка : MP2
Продолжительность : 1 ч. 31 м.
Вид битрейта : Постоянный
Битрейт : 128 Кбит/сек
Каналы : 2 канала
Частота : 48,0 КГц
Метод сжатия : С потерями
Задержка видео : 12 мс.
Размер потока : 83,4 Мбайт (4%)
Язык : Russian
Default : Да
Forced : Нет
Общее
Уникальный идентификатор : 14931084205922263434175454805890152618 (0xB3B9F49A44F9D5B400A33C7831FB8AA)
Полное имя : D:\Torrent\МОРСКОЙ ВОЛК\МОРСКОЙ ВОЛК 02 (RETRO).mkv
Формат : Matroska
Версия формата : Version 2
Размер файла : 1,37 Гбайт
Продолжительность : 1 ч. 5 м.
Режим общего битрейта : Переменный
Общий поток : 2970 Кбит/сек
Программа кодирования : Lavf52.64.2
Библиотека кодирования : Lavf52.64.2
Видео
Идентификатор : 1
Формат : MPEG Video
Версия формата : Version 2
Профиль формата : Main@Main
Параметр BVOP формата : Да
Параметр матрицы формата : Выборочная
Параметр GOP формата : Variable
Структура изображения : Frame
Идентификатор кодека : V_MPEG2
Идентификатор кодека/Информация : MPEG 1 or 2 Video
Продолжительность : 1 ч. 5 м.
Вид битрейта : Переменный
Битрейт : 2783 Кбит/сек
Максимальный битрейт : 2880 Кбит/сек
Ширина : 720 пикселей
Высота : 576 пикселей
Соотношение сторон : 4:3
Соотношение сторон в оригинале : 4:3
Режим частоты кадров : Постоянный
Частота кадров : 25,000 кадров/сек
Стандарт вещания : PAL
Цветовое пространство : YUV
Субдискретизация насыщенности : 4:2:0
Битовая глубина : 8 бит
Тип развёртки : Чересстрочная
Порядок развёртки : Верхнее поле первое
Метод сжатия : С потерями
Бит/(Пиксели*Кадры) : 0.268
Временной код первого кадра : 00:00:00:00
Оригинал временного кода : Group of pictures header
GOP, открыто/закрыто : Открыто
Размер потока : 1,28 Гбайт (94%)
Default : Да
Forced : Нет
Аудио
Идентификатор : 2
Формат : MPEG Audio
Версия формата : Version 1
Профиль формата : Layer 2
Идентификатор кодека : A_MPEG/L2
Идентификатор кодека/Подсказка : MP2
Продолжительность : 1 ч. 5 м.
Вид битрейта : Постоянный
Битрейт : 128 Кбит/сек
Каналы : 2 канала
Частота : 48,0 КГц
Метод сжатия : С потерями
Задержка видео : 20 мс.
Размер потока : 60,3 Мбайт (4%)
Язык : Russian
Default : Да
Forced : Нет
Общее
Уникальный идентификатор : 290113331857034175273735611271287726795 (0xDA41CB995DE553B4905D8B4540E4E2CB)
Полное имя : D:\Torrent\МОРСКОЙ ВОЛК\МОРСКОЙ ВОЛК 03 (RETRO).mkv
Формат : Matroska
Версия формата : Version 2
Размер файла : 1,29 Гбайт
Продолжительность : 1 ч. 2 м.
Режим общего битрейта : Переменный
Общий поток : 2971 Кбит/сек
Программа кодирования : Lavf52.64.2
Библиотека кодирования : Lavf52.64.2
Видео
Идентификатор : 1
Формат : MPEG Video
Версия формата : Version 2
Профиль формата : Main@Main
Параметр BVOP формата : Да
Параметр матрицы формата : Выборочная
Параметр GOP формата : Variable
Структура изображения : Frame
Идентификатор кодека : V_MPEG2
Идентификатор кодека/Информация : MPEG 1 or 2 Video
Продолжительность : 1 ч. 2 м.
Вид битрейта : Переменный
Битрейт : 2784 Кбит/сек
Максимальный битрейт : 2880 Кбит/сек
Ширина : 720 пикселей
Высота : 576 пикселей
Соотношение сторон : 4:3
Соотношение сторон в оригинале : 4:3
Режим частоты кадров : Постоянный
Частота кадров : 25,000 кадров/сек
Стандарт вещания : PAL
Цветовое пространство : YUV
Субдискретизация насыщенности : 4:2:0
Битовая глубина : 8 бит
Тип развёртки : Чересстрочная
Порядок развёртки : Верхнее поле первое
Метод сжатия : С потерями
Бит/(Пиксели*Кадры) : 0.268
Временной код первого кадра : 00:00:00:00
Оригинал временного кода : Group of pictures header
GOP, открыто/закрыто : Открыто
Размер потока : 1,21 Гбайт (94%)
Default : Да
Forced : Нет
Аудио
Идентификатор : 2
Формат : MPEG Audio
Версия формата : Version 1
Профиль формата : Layer 2
Идентификатор кодека : A_MPEG/L2
Идентификатор кодека/Подсказка : MP2
Продолжительность : 1 ч. 2 м.
Вид битрейта : Постоянный
Битрейт : 128 Кбит/сек
Каналы : 2 канала
Частота : 48,0 КГц
Метод сжатия : С потерями
Задержка видео : 12 мс.
Размер потока : 57,1 Мбайт (4%)
Язык : Russian
Default : Да
Forced : Нет
Общее
Уникальный идентификатор : 11136115217007652690474767709510897251 (0x860BCDEE4497B9D27CD1C3E5E410E63)
Полное имя : D:\Torrent\МОРСКОЙ ВОЛК\МОРСКОЙ ВОЛК 04 (RETRO).mkv
Формат : Matroska
Версия формата : Version 2
Размер файла : 1,47 Гбайт
Продолжительность : 1 ч. 10 м.
Режим общего битрейта : Переменный
Общий поток : 2971 Кбит/сек
Программа кодирования : Lavf52.64.2
Библиотека кодирования : Lavf52.64.2
Видео
Идентификатор : 1
Формат : MPEG Video
Версия формата : Version 2
Профиль формата : Main@Main
Параметр BVOP формата : Да
Параметр матрицы формата : Выборочная
Параметр GOP формата : Variable
Структура изображения : Frame
Идентификатор кодека : V_MPEG2
Идентификатор кодека/Информация : MPEG 1 or 2 Video
Продолжительность : 1 ч. 10 м.
Вид битрейта : Переменный
Битрейт : 2784 Кбит/сек
Максимальный битрейт : 2880 Кбит/сек
Ширина : 720 пикселей
Высота : 576 пикселей
Соотношение сторон : 4:3
Соотношение сторон в оригинале : 4:3
Режим частоты кадров : Постоянный
Частота кадров : 25,000 кадров/сек
Стандарт вещания : PAL
Цветовое пространство : YUV
Субдискретизация насыщенности : 4:2:0
Битовая глубина : 8 бит
Тип развёртки : Чересстрочная
Порядок развёртки : Верхнее поле первое
Метод сжатия : С потерями
Бит/(Пиксели*Кадры) : 0.268
Временной код первого кадра : 00:00:00:00
Оригинал временного кода : Group of pictures header
GOP, открыто/закрыто : Открыто
Размер потока : 1,37 Гбайт (94%)
Default : Да
Forced : Нет
Аудио
Идентификатор : 2
Формат : MPEG Audio
Версия формата : Version 1
Профиль формата : Layer 2
Идентификатор кодека : A_MPEG/L2
Идентификатор кодека/Подсказка : MP2
Продолжительность : 1 ч. 10 м.
Вид битрейта : Постоянный
Битрейт : 128 Кбит/сек
Каналы : 2 канала
Частота : 48,0 КГц
Метод сжатия : С потерями
Задержка видео : 12 мс.
Размер потока : 64,6 Мбайт (4%)
Язык : Russian
Default : Да
Forced : Нет
[opentorrent.pro].t3445.torrent 
Торрент: Зарегистрирован [ 2019-06-07 16:23 ] · B60ACA8C56FAF85096C0B1977E906C199B5BC781

Скачать .torrent

Скачать

31 KB

Статус: проверено
Скачан: 0 раз
Размер: 6,02 GB  ·  Тип торрента
terms.php
Показать сообщения:    

Текущее время: 04-Авг 08:38

Часовой пояс: UTC ± 0



Вы не можете начинать темы
Вы не можете отвечать на сообщения
Вы не можете редактировать свои сообщения
Вы не можете удалять свои сообщения
Вы не можете голосовать в опросах
Вы не можете прикреплять файлы к сообщениям
Вы можете скачивать файлы