Статистика раздачи
Размер:  2,18 GB   |    Зарегистрирован:  11 месяцев 22 дня   |    Скачан:  0 раз
DL-List: Нет

Полного источника не было: Никогда

 
     
 
 

Гость ®

Пол:
Не указан

Холодное лето пятьдесят третьего...- Жанр: драма
Год выпуска: 1987
Продолжительность: 1:36:10
Субтитры: русские, английские-Режиссёр: Александр Прошкин-В ролях: Валерий Приёмыхов, Анатолий Папанов, Юрий Кузнецов, Владимир Кашпур, Нина Усатова, Виктор Степанов, Зоя Буряк, Владимир Головин, Алексей Колесник, Андрей Дударенко, Александр Завьялов, Виктор Косых, Сергей Власов, Елизавета Солодова, Борис Плотников
Описание: 1953 год. В тайге скрывается амнистированная группа уголовников, совершающих одно за другим тяжкие преступления. В поисках еды и средств передвижения они набредают на деревушку, где в ожидании катера находятся двое амнистированных политзаключённых. Этим двоим и предстоит спасти беспомощных жителей от банды рецидивистов.-Исходник | Сэмпл | Кинопоиск-Качество видео: HDTVRip-AVC, спасибо a&s за исходник.
Формат видео: MKV
Видео: x264 (High@L4.1); 832x608, Display aspect ratio 4:3, 25.000 fps, 2680 Kbps
Аудио 1: AC-3; 16 bits 48 Khz; Mono 112 Kbps; CBR (DVD5)
Аудио 2: AC-3; 16 bits 48 Khz; 5.1ch 448 Kbps; CBR --"--
Формат субтитров: softsub (SRT)

MediaInfo

x264 log

avs [info]: 832x608p 1:1 @ 25/1 fps (cfr)
x264 [info]: using SAR=1/1
x264 [info]: using cpu capabilities: MMX2 SSE2Fast SSSE3 SSE4.2
x264 [info]: profile High, level 4.1
x264 [info]: frame I:755 Avg QP:16.21 size: 78835
x264 [info]: frame P:37395 Avg QP:18.72 size: 26352
x264 [info]: frame B:106311 Avg QP:20.49 size: 8379
x264 [info]: consecutive B-frames: 2.1% 3.6% 5.7% 67.2% 10.6% 7.6% 2.1% 0.9% 0.2%
x264 [info]: mb I I16..4: 9.0% 77.8% 13.2%
x264 [info]: mb P I16..4: 0.3% 12.7% 0.9% P16..4: 38.9% 26.0% 19.2% 0.5% 0.1% skip: 1.4%
x264 [info]: mb B I16..4: 0.0% 1.1% 0.1% B16..8: 37.5% 10.6% 3.2% direct: 6.3% skip:41.1% L0:39.7% L1:44.9% BI:15.5%
x264 [info]: 8x8 transform intra:89.9% inter:57.5%
x264 [info]: direct mvs spatial:99.1% temporal:0.9%
x264 [info]: coded y,uvDC,uvAC intra: 98.4% 67.3% 35.5% inter: 32.8% 20.0% 6.1%
x264 [info]: i16 v,h,dc,p: 4% 5% 55% 37%
x264 [info]: i8 v,h,dc,ddl,ddr,vr,hd,vl,hu: 9% 13% 10% 9% 12% 11% 12% 11% 14%
x264 [info]: i4 v,h,dc,ddl,ddr,vr,hd,vl,hu: 8% 10% 3% 8% 14% 14% 16% 11% 15%
x264 [info]: i8c dc,h,v,p: 41% 29% 20% 10%
x264 [info]: Weighted P-Frames: Y:4.5% UV:0.9%
x264 [info]: ref P L0: 54.4% 13.9% 11.2% 4.2% 3.0% 2.6% 2.0% 1.4% 1.1% 1.1% 0.9% 1.0% 0.8% 0.9% 0.8% 0.6%
x264 [info]: ref B L0: 82.3% 8.0% 2.8% 1.4% 1.0% 0.9% 0.8% 0.5% 0.4% 0.4% 0.4% 0.4% 0.3% 0.3% 0.2%
x264 [info]: ref B L1: 96.8% 3.2%
x264 [info]: kb/s:2679.95
-General
Unique ID : 183293256336611414663320898351362533843 (0x89E4FF41D56D59F2A7197CD7FFB4E9D3)
Complete name : Холодное лето пятьдесят третьего.1987.mkv
Format : Matroska
Format version : Version 2
File size : 2.18 GiB
Duration : 1 h 36 min
Overall bit rate : 3 241 kb/s
Encoded date : UTC 2019-06-02 11:29:46
Writing application : mkvmerge v7.8.0 ('River Man') 32bit built on Mar 27 2015 16:18:02
Writing library : libebml v1.3.1 + libmatroska v1.4.2
Video
ID : 1
Format : AVC
Format/Info : Advanced Video Codec
Format profile : High@L4.1
Format settings : CABAC / 16 Ref Frames
Format settings, CABAC : Yes
Format settings, ReFrames : 16 frames
Codec ID : V_MPEG4/ISO/AVC
Duration : 1 h 36 min
Bit rate : 2 680 kb/s
Width : 832 pixels
Height : 608 pixels
Display aspect ratio : 4:3
Frame rate mode : Constant
Frame rate : 25.000 FPS
Color space : YUV
Chroma subsampling : 4:2:0
Bit depth : 8 bits
Scan type : Progressive
Bits/(Pixel*Frame) : 0.212
Stream size : 1.76 GiB (81%)
Title : Холодное лето пятьдесят третьего... 1987
Writing library : x264 core 152 r2851kMod ba24899
Encoding settings : cabac=1 / ref=16 / deblock=1:-2:-2 / analyse=0x3:0x133 / me=umh / subme=10 / psy=1 / fade_compensate=0.00 / psy_rd=1.10:0.10 / mixed_ref=1 / me_range=32 / chroma_me=1 / trellis=2 / 8x8dct=1 / cqm=0 / deadzone=21,11 / fast_pskip=0 / chroma_qp_offset=-3 / threads=12 / lookahead_threads=2 / sliced_threads=0 / nr=0 / decimate=0 / interlaced=0 / bluray_compat=0 / constrained_intra=0 / bframes=8 / b_pyramid=2 / b_adapt=2 / b_bias=0 / direct=3 / weightb=1 / open_gop=0 / weightp=2 / keyint=250 / keyint_min=25 / scenecut=40 / intra_refresh=0 / rc_lookahead=60 / rc=2pass / mbtree=0 / bitrate=2680 / ratetol=1.0 / qcomp=0.60 / qpmin=0 / qpmax=69 / qpstep=4 / cplxblur=20.0 / qblur=0.5 / vbv_maxrate=62500 / vbv_bufsize=78125 / nal_hrd=none / filler=0 / ip_ratio=1.35 / pb_ratio=1.30 / aq=1:0.90 / zones=0,764,q=10
Language : Russian
Default : Yes
Forced : No
Color range : Limited
Color primaries : BT.709
Transfer characteristics : BT.709
Matrix coefficients : BT.709
Audio #1
ID : 2
Format : AC-3
Format/Info : Audio Coding 3
Codec ID : A_AC3
Duration : 1 h 36 min
Bit rate mode : Constant
Bit rate : 112 kb/s
Channel(s) : 1 channel
Channel positions : Front: C
Sampling rate : 48.0 kHz
Frame rate : 31.250 FPS (1536 SPF)
Bit depth : 16 bits
Compression mode : Lossy
Stream size : 77.2 MiB (3%)
Title : AC-3; 16 bits 48 Khz; 1.0ch 112 Kbps; CBR | DVD5
Language : Russian
Service kind : Complete Main
Default : Yes
Forced : No
Audio #2
ID : 3
Format : AC-3
Format/Info : Audio Coding 3
Codec ID : A_AC3
Duration : 1 h 36 min
Bit rate mode : Constant
Bit rate : 448 kb/s
Channel(s) : 6 channels
Channel positions : Front: L C R, Side: L R, LFE
Sampling rate : 48.0 kHz
Frame rate : 31.250 FPS (1536 SPF)
Bit depth : 16 bits
Compression mode : Lossy
Stream size : 309 MiB (14%)
Title : AC-3; 16 bits 48 Khz; 5.1ch 448 Kbps; CBR | DVD5
Language : Russian
Service kind : Complete Main
Default : No
Forced : No
Text #1
ID : 4
Format : UTF-8
Codec ID : S_TEXT/UTF8
Codec ID/Info : UTF-8 Plain Text
Title : Субтитры русские
Language : Russian
Default : No
Forced : No
Text #2
ID : 5
Format : UTF-8
Codec ID : S_TEXT/UTF8
Codec ID/Info : UTF-8 Plain Text
Title : Субтитры английские
Language : English
Default : No
Forced : No
Menu
00:00:00.000 : ru:Поселенцы
00:08:29.840 : ru:Старший лейтенант Манков
00:14:28.000 : ru:Зотов
00:20:55.440 : ru:Банда
00:25:55.400 : ru:Предатель
00:34:03.840 : ru:Первая кровь
00:42:39.480 : ru:Захват поселка
00:47:21.840 : ru:На пристани
00:52:35.640 : ru:Корабль
00:58:47.920 : ru:Побег
01:03:05.600 : ru:Охота
01:11:35.640 : ru:В засаде
01:15:59.400 : ru:Конец банды
01:18:50.440 : ru:После боя
01:23:16.120 : ru:Последняя жертва
01:29:19.760 : ru:Возвращение

Скриншоты

[opentorrent.pro].t3473.torrent 
Торрент: Зарегистрирован [ 2019-06-07 16:23 ] · 751BC99C62D0F7DE6DD1CBAD75A522016F5532AE

Скачать .torrent

Скачать

11 KB

Статус: проверено
Скачан: 0 раз
Размер: 2,18 GB  ·  Тип торрента
terms.php
Показать сообщения:    

Текущее время: 29-Май 17:34

Часовой пояс: UTC ± 0



Вы не можете начинать темы
Вы не можете отвечать на сообщения
Вы не можете редактировать свои сообщения
Вы не можете удалять свои сообщения
Вы не можете голосовать в опросах
Вы не можете прикреплять файлы к сообщениям
Вы можете скачивать файлы