Статистика раздачи
Размер:  749 MB   |    Зарегистрирован:  1 год   |    Скачан:  0 раз
DL-List: Нет

Полного источника не было: Никогда

 
     
 
 

Гость ®

Пол:
Не указан

Игла
Страна: СССР
Жанр: драма
Год выпуска: 1988
Продолжительность: 01:16:49
Субтитры: русские, английские, французские
Режиссёр: Рашид Нугманов
В ролях: Виктор Цой, Марина Смирнова, Пётр Мамонов, Александр Баширов, Архимед Искаков, Геннадий Люй, Александр Конкс, Рахимджан Абдыкадыров, Райхан Канатбаев, Айхан Чатаева, Владимир Даниленко, Александр Конкс, Марат Азимбаев, Игорь Старцев
Описание: Моро приезжает в родной город, чтобы получить старый долг и останавливается у своей подруги, с которой давно расстался. Наблюдая за её странными знакомыми, Моро понимает, что Дина стала наркоманкой. Моро увозит девушку к морю, где Дина начинает выздоравливать. Однако после возвращения в город всё начинается сначала. Моро решает расправиться с поставщиками наркотиков..

Семпл: http://multi-up.com/1233520
Качество видео: HDRip-AVC
Формат видео: MKV
Видео: 704x536 at 25.000 fps, MPEG-4 AVC, ~1168 kbps
Аудио: 48 kHz, AC3, 2/0 (L,R) ch, ~192 kbps
Формат субтитров: softsub (SRT)

MediaInfo

avs [info]: 704x536p 1:1 @ 25/1 fps (cfr)
x264 [info]: using SAR=1/1
x264 [info]: using cpu capabilities: MMX2 SSE2Fast SSSE3 Cache64
x264 [info]: profile High, level 4.1
x264 [info]: frame I:618 Avg QP:16.76 size: 56703
x264 [info]: frame P:24684 Avg QP:18.58 size: 15996
x264 [info]: frame B:89949 Avg QP:20.95 size: 2730
x264 [info]: consecutive B-frames: 2.3% 2.8% 6.5% 13.3% 19.0% 45.2% 8.6% 1.3% 0.7% 0.3%-Format : Matroska
Format version : Version 2
File size : 749 MiB
Duration : 1h 16mn
Overall bit rate : 1 362 Kbps
Movie name : Игла / The Needle (1988)
Encoded date : UTC 2019-06-03 08:49:23
Writing application : mkvmerge v3.4.0 ('Rapunzel') built on May 15 2010 09:38:20
Writing library : libebml v0.8.0 + libmatroska v0.9.0
Video
ID : 1
Format : AVC
Format/Info : Advanced Video Codec
Format profile : High@L4.1
Format settings, CABAC : Yes
Format settings, ReFrames : 11 frames
Codec ID : V_MPEG4/ISO/AVC
Duration : 1h 16mn
Bit rate : 1 168 Kbps
Width : 704 pixels
Height : 536 pixels
Display aspect ratio : 4:3
Frame rate mode : Constant
Frame rate : 25.000 fps
Color space : YUV
Chroma subsampling : 4:2:0
Bit depth : 8 bits
Scan type : Progressive
Bits/(Pixel*Frame) : 0.124
Stream size : 628 MiB (84%)
Title : AVC @ 1168 kbps
Writing library : x264 core 152 r2851 ba24899
Encoding settings : cabac=1 / ref=11 / deblock=1:-2:-1 / analyse=0x3:0x133 / me=umh / subme=9 / psy=1 / psy_rd=1.00:0.15 / mixed_ref=1 / me_range=32 / chroma_me=1 / trellis=2 / 8x8dct=1 / cqm=0 / deadzone=21,11 / fast_pskip=0 / chroma_qp_offset=-3 / threads=3 / lookahead_threads=1 / sliced_threads=0 / nr=0 / decimate=1 / interlaced=0 / bluray_compat=0 / constrained_intra=0 / bframes=9 / b_pyramid=2 / b_adapt=2 / b_bias=0 / direct=3 / weightb=1 / open_gop=0 / weightp=2 / keyint=250 / keyint_min=25 / scenecut=40 / intra_refresh=0 / rc_lookahead=80 / rc=2pass / mbtree=1 / bitrate=1168 / ratetol=1.0 / qcomp=0.60 / qpmin=0 / qpmax=69 / qpstep=4 / cplxblur=20.0 / qblur=0.5 / ip_ratio=1.35 / aq=1:1.00
Language : Russian
Default : Yes
Forced : No
Audio
ID : 2
Format : AC-3
Format/Info : Audio Coding 3
Mode extension : CM (complete main)
Format settings, Endianness : Big
Codec ID : A_AC3
Duration : 1h 16mn
Bit rate mode : Constant
Bit rate : 192 Kbps
Channel(s) : 2 channels
Channel positions : Front: L R
Sampling rate : 48.0 KHz
Bit depth : 16 bits
Compression mode : Lossy
Stream size : 106 MiB (14%)
Title : AC3 @ 192 kbps
Language : Russian
Default : Yes
Forced : No
Text #1
ID : 3
Format : UTF-8
Codec ID : S_TEXT/UTF8
Codec ID/Info : UTF-8 Plain Text
Title : Русские
Language : Russian
Default : No
Forced : No
Text #2
ID : 4
Format : UTF-8
Codec ID : S_TEXT/UTF8
Codec ID/Info : UTF-8 Plain Text
Title : Английские
Language : English
Default : No
Forced : No
Text #3
ID : 5
Format : UTF-8
Codec ID : S_TEXT/UTF8
Codec ID/Info : UTF-8 Plain Text
Title : Французские
Language : French
Default : No
Forced : No

Скриншоты

[opentorrent.pro].t3474.torrent 
Торрент: Зарегистрирован [ 2019-06-07 16:23 ] · 4BEAB37D346A0F78E28C88B62F2ABEE2D2F76048

Скачать .torrent

Скачать

15 KB

Статус: проверено
Скачан: 0 раз
Размер: 749 MB  ·  Тип торрента
terms.php
Показать сообщения:    

Текущее время: 07-Июл 06:49

Часовой пояс: UTC ± 0



Вы не можете начинать темы
Вы не можете отвечать на сообщения
Вы не можете редактировать свои сообщения
Вы не можете удалять свои сообщения
Вы не можете голосовать в опросах
Вы не можете прикреплять файлы к сообщениям
Вы можете скачивать файлы