Статистика раздачи
Размер:  1,45 GB   |    Зарегистрирован:  1 год 2 месяца   |    Скачан:  0 раз
DL-List: Нет

Полного источника не было: Никогда

 
     
 
 

Гость ®

Пол:
Не указан

Сюжет для небольшого рассказа- Жанр: биографическая драма
Год выпуска: 1969
Продолжительность: 01:21:19-Режиссёр: Сергей Юткевич-В ролях: Николай Гринько, Ия Саввина, Ролан Быков, Александра Панова, Евгений Лебедев, Марина Влади, Юрий Яковлев, Леонид Галлис, Владимир Осенев, Екатерина Васильева, Сергей Кулагин, Евгений Шутов, Виктор Авдюшко, Георгий Тусузов
Описание: Фильм построен на воспоминаниях А.П.Чехова о провальной премьере "Чайки", о несложившемся счастье с Ликой Мизиновой, о газетах, предрекавших писателю "смерть под забором"...-Исходник | Сэмпл | Кинопоиск-Качество видео: SATRip-AVC, спасибо Cheef mate за исходник.
Формат видео: MKV
Видео: x264 (High@L4.1); 718@1021x426, Display aspect ratio 2.397:1, 25.000 fps, 2363 Kbps
Аудио: AC-3; 16 bits 48 Khz; 2.0ch 192 Kbps; CBR

MediaInfo

x264 log

avs [info]: 718x426p 64:45 @ 25/1 fps (cfr)
x264 [info]: using SAR=64/45
x264 [info]: using cpu capabilities: MMX2 SSE2Fast SSSE3 SSE4.2
x264 [info]: profile High, level 4.1
x264 [info]: frame I:642 Avg QP:17.37 size: 68829
x264 [info]: frame P:22554 Avg QP:19.08 size: 28670
x264 [info]: frame B:98781 Avg QP:20.79 size: 7593
x264 [info]: consecutive B-frames: 0.8% 0.5% 2.6% 11.6% 17.1% 53.7% 8.2% 2.7% 1.8% 0.9%
x264 [info]: mb I I16..4: 21.4% 37.8% 40.8%
x264 [info]: mb P I16..4: 2.8% 7.8% 1.6% P16..4: 35.3% 28.9% 21.5% 1.1% 0.3% skip: 0.5%
x264 [info]: mb B I16..4: 0.0% 2.2% 0.1% B16..8: 27.9% 9.9% 4.8% direct: 9.8% skip:45.3% L0:40.2% L1:40.5% BI:19.2%
x264 [info]: 8x8 transform intra:73.2% inter:49.4%
x264 [info]: direct mvs spatial:98.6% temporal:1.4%
x264 [info]: coded y,uvDC,uvAC intra: 99.6% 57.0% 38.0% inter: 35.2% 16.9% 5.1%
x264 [info]: i16 v,h,dc,p: 3% 3% 60% 34%
x264 [info]: i8 v,h,dc,ddl,ddr,vr,hd,vl,hu: 12% 7% 21% 9% 10% 11% 10% 11% 10%
x264 [info]: i4 v,h,dc,ddl,ddr,vr,hd,vl,hu: 17% 8% 6% 9% 12% 14% 11% 12% 10%
x264 [info]: i8c dc,h,v,p: 34% 31% 24% 11%
x264 [info]: Weighted P-Frames: Y:24.5% UV:7.0%
x264 [info]: ref P L0: 37.0% 13.9% 17.9% 5.8% 5.1% 3.2% 3.5% 1.7% 2.0% 1.5% 1.8% 1.4% 1.6% 1.2% 1.5% 1.0%
x264 [info]: ref B L0: 72.2% 11.8% 4.2% 2.5% 1.6% 1.5% 1.2% 0.9% 0.7% 0.7% 0.7% 0.7% 0.6% 0.4% 0.2%
x264 [info]: ref B L1: 96.2% 3.8%
x264 [info]: kb/s:2362.51
-General
Unique ID : 179285564791503318657137849600105853721 (0x86E124CEF3A73F1EA77419D570213319)
Complete name : Сюжет для небольшого рассказа.1969.mkv
Format : Matroska
Format version : Version 2
File size : 1.45 GiB
Duration : 1 h 21 min
Overall bit rate : 2 556 kb/s
Encoded date : UTC 2019-06-05 12:37:24
Writing application : mkvmerge v7.8.0 ('River Man') 32bit built on Mar 27 2015 16:18:02
Writing library : libebml v1.3.1 + libmatroska v1.4.2
Video
ID : 1
Format : AVC
Format/Info : Advanced Video Codec
Format profile : High@L4.1
Format settings : CABAC / 16 Ref Frames
Format settings, CABAC : Yes
Format settings, ReFrames : 16 frames
Codec ID : V_MPEG4/ISO/AVC
Duration : 1 h 21 min
Bit rate : 2 363 kb/s
Width : 718 pixels
Height : 426 pixels
Display aspect ratio : 2.40:1
Frame rate mode : Constant
Frame rate : 25.000 FPS
Color space : YUV
Chroma subsampling : 4:2:0
Bit depth : 8 bits
Scan type : Progressive
Bits/(Pixel*Frame) : 0.309
Stream size : 1.31 GiB (90%)
Title : Сюжет для небольшого рассказа.1969
Writing library : x264 core 152 r2851kMod ba24899
Encoding settings : cabac=1 / ref=16 / deblock=1:-1:0 / analyse=0x3:0x133 / me=umh / subme=10 / psy=1 / fade_compensate=0.00 / psy_rd=0.80:0.10 / mixed_ref=1 / me_range=32 / chroma_me=1 / trellis=2 / 8x8dct=1 / cqm=0 / deadzone=21,11 / fast_pskip=0 / chroma_qp_offset=-3 / threads=12 / lookahead_threads=2 / sliced_threads=0 / nr=0 / decimate=0 / interlaced=0 / bluray_compat=0 / constrained_intra=0 / bframes=9 / b_pyramid=2 / b_adapt=2 / b_bias=0 / direct=3 / weightb=1 / open_gop=0 / weightp=2 / keyint=250 / keyint_min=25 / scenecut=40 / intra_refresh=0 / rc_lookahead=60 / rc=2pass / mbtree=0 / bitrate=2363 / ratetol=1.0 / qcomp=0.60 / qpmin=0 / qpmax=69 / qpstep=4 / cplxblur=20.0 / qblur=0.5 / vbv_maxrate=62500 / vbv_bufsize=78125 / nal_hrd=none / filler=0 / ip_ratio=1.40 / pb_ratio=1.30 / aq=1:1.00
Language : Russian
Default : Yes
Forced : No
Color range : Limited
Color primaries : BT.601 PAL
Transfer characteristics : BT.470 System B, BT.470 System G
Matrix coefficients : BT.470 System B, BT.470 System G
Audio
ID : 2
Format : AC-3
Format/Info : Audio Coding 3
Codec ID : A_AC3
Duration : 1 h 21 min
Bit rate mode : Constant
Bit rate : 192 kb/s
Channel(s) : 2 channels
Channel positions : Front: L R
Sampling rate : 48.0 kHz
Frame rate : 31.250 FPS (1536 SPF)
Bit depth : 16 bits
Compression mode : Lossy
Stream size : 112 MiB (8%)
Title : AC-3; 16 bits 48 Khz; 2.0ch 192 Kbps; CBR
Language : Russian
Service kind : Complete Main
Default : Yes
Forced : No

Скриншоты

[opentorrent.pro].t3475.torrent 
Торрент: Зарегистрирован [ 2019-06-07 16:23 ] · 2359807F5BBE322940B52421728F5BE1A27914AF

Скачать .torrent

Скачать

15 KB

Статус: проверено
Скачан: 0 раз
Размер: 1,45 GB  ·  Тип торрента
terms.php
Показать сообщения:    

Текущее время: 08-Авг 21:04

Часовой пояс: UTC ± 0



Вы не можете начинать темы
Вы не можете отвечать на сообщения
Вы не можете редактировать свои сообщения
Вы не можете удалять свои сообщения
Вы не можете голосовать в опросах
Вы не можете прикреплять файлы к сообщениям
Вы можете скачивать файлы