Статистика раздачи
Размер:  2,07 GB   |    Зарегистрирован:  11 месяцев 16 дней   |    Скачан:  0 раз
DL-List: Нет

Полного источника не было: Никогда

 
     
 
 

serzh ®

Пол:
Не указан
Стаж:
1 год 2 месяца
Сообщений:
442

Удaчи, мисс Вaйкофф / Good Luck, Miss Wyckoff
Жанр: Драма
Страна: США
Студия: Bel Air/Gradison Productions
Год выпуска: 1978
Продолжительность: 01:46:35
Перевод и озвучка: Одноголосый закадровый – CCK+ (Сергей Квардаков)
Оригинальная аудиодорожка: английский
Режиссер: Марвин Дж. Чомски / Marvin J. Chomsky
В ролях:
Энн Хейвуд / Anne Heywood ... Evelyn Wyckoff
Дональд Плэзенс / Donald Pleasence ... Dr. Steiner
Роберт Вон / Robert Vaughn ... Dr. Neal
Эрл Холлиман / Earl Holliman ... Ed Eckles
Кэролин Джонс / Carolyn Jones ... Beth
Рони Блейкли / Ronee Blakley ... Betsy
Дороти Мэлоун / Dorothy Malone ... Mildred
Дорис Робертс / Doris Roberts ... Marie
Джон Лафайетт / John Lafayette ... Rafe Collins
Жослин Брандо / Jocelyn Brando ... Mrs. Hemmings
Р.Г. Армстронг / R.G. Armstrong ... Mr. Hemmings
Дэна Элкар / Dana Elcar ... Havermeyer
Дж. Патрик МакНамара / J. Patrick McNamara ... Chest Rollins
Гари Прендергаст / Gary Prendergast ... Marlon
Рип Кларк / Rip Clark ... Henry
Описание: По роману Уильяма Инге (William Inge).
1954 год, штат Канзас, вымышленный городок Freedom. 35-летняя одинокая учительница латинского языка Эвелин Вайкофф разочарована в своей работе и постепенно впадает в депрессию, несмотря на то, что её любят и студенты, и коллеги. Несмотря на свою привлекательность, она всё ещё одинока.
Однажды, когда молодой чернокожий уборщик Рейф Коллинз (Джон Лафайетт), начинает делать неприличные намёки и расстёгивать брюки в её присутствии, Эвелин в панике убегает, но не хочет никому рассказывать об инциденте, надеясь, что тем всё и ограничится.
На следующий день Рейф снова пристаёт к Эвелин и насилует её прямо на рабочем столе. Чувствуя не только стыд, но и страх быть опозоренной из-за половых отношений с чернокожим в обстановке консервативного Юга, она хранит молчание по поводу событий. И это оказалось опрометчивым решением. Рейф оказывается садистом и психопатом — он продолжает ежедневно её насиловать. В конце концов Эвелин начинает сама ждать встреч с ним со смешанным чувством страха и полового желания…
Дополнительная информация:
Релиз:
Исходник найден в сети.
Автор рипа: pmv
Большое спасибо за:
- перевод и озвучку - ССК+ (Сергей Квардаков)
=== ВНИМАНИЕ! ФИЛЬМ СОДЕРЖИТ ОТКРОВЕННЫЕ СЦЕНЫ СЕКСУАЛЬНОГО НАСИЛИЯ!
НЕ РЕКОМЕНДУЕТСЯ ПРОСМОТР ЗРИТЕЛЯМ МОЛОЖЕ 18 ЛЕТ!
===
IMDb = 5,7/10 (198) - https://www.imdb.com/title/tt0079228/
Кинопоиск = - (19) - https://www.kinopoisk.ru/film/udachi-miss-vikoff-1979-14530/
ВНИМАНИЕ!!! РИП ФОРМАТА mkv (кодек H.264) ВОСПРОИЗВОДИТСЯ НЕ НА ВСЕХ БЫТОВЫХ ВИДЕОПЛЕЕРАХ!!!
ПРОСЬБА к СКАЧАВШИМ. НЕ УХОДИТЕ С РАЗДАЧИ, ПОМОГИТЕ ДРУГИМ СКАЧАТЬ!!!
Качество видео: WEB-DLRip-AVC
Формат видео: MKV
Видео: AVC (H264), 1152x624 (1.85:1), 23.976 fps, 2400 kbps, 0.139 Bits/Pixel
Аудио #1: 48 kHz, AC3 Dolby Digital, 2/0 (L,R) ch, ~192.00 kbps avg – русский (ССК+)
Аудио #2: 48 kHz, AC3 Dolby Digital, 2/0 (L,R) ch, ~192.00 kbps avg - английский

MediaInfo

General
Unique ID : 216797138782555266370189541239514934625 (0xA3199C3263A9D1576204E723475B2D61)
Complete name : D:\torrents\Удачи, мисс Вайкофф (1979, rus_VO+eng).mkv
Format : Matroska
Format version : Version 4 / Version 2
File size : 2.07 GiB
Duration : 1 h 46 min
Overall bit rate : 2 787 kb/s
Encoded date : UTC 2019-06-05 15:16:54
Writing application : mkvmerge v34.0.0 ('Sight and Seen') 64-bit
Writing library : libebml v1.3.7 + libmatroska v1.5.0
Video
ID : 1
Format : AVC
Format/Info : Advanced Video Codec
Format profile : High@L4.1
Format settings, CABAC : Yes
Format settings, RefFrames : 11 frames
Codec ID : V_MPEG4/ISO/AVC
Duration : 1 h 46 min
Bit rate : 2 400 kb/s
Width : 1 152 pixels
Height : 624 pixels
Display aspect ratio : 1.85:1
Frame rate mode : Constant
Frame rate : 23.976 (23976/1000) FPS
Color space : YUV
Chroma subsampling : 4:2:0
Bit depth : 8 bits
Scan type : Progressive
Bits/(Pixel*Frame) : 0.139
Stream size : 1.79 GiB (86%)
Writing library : x264 core 146 r2538 121396c
Encoding settings : cabac=1 / ref=11 / deblock=1:0:0 / analyse=0x3:0x133 / me=umh / subme=10 / psy=1 / psy_rd=1.00:0.00 / mixed_ref=1 / me_range=24 / chroma_me=1 / trellis=2 / 8x8dct=1 / cqm=0 / deadzone=21,11 / fast_pskip=1 / chroma_qp_offset=-2 / threads=48 / lookahead_threads=4 / sliced_threads=0 / nr=0 / decimate=1 / interlaced=0 / bluray_compat=0 / constrained_intra=0 / bframes=8 / b_pyramid=2 / b_adapt=2 / b_bias=0 / direct=3 / weightb=1 / open_gop=0 / weightp=2 / keyint=250 / keyint_min=23 / scenecut=40 / intra_refresh=0 / rc_lookahead=60 / rc=2pass / mbtree=1 / bitrate=2400 / ratetol=1.0 / qcomp=0.60 / qpmin=0 / qpmax=69 / qpstep=4 / cplxblur=20.0 / qblur=0.5 / ip_ratio=1.40 / aq=1:1.00
Language : English
Default : Yes
Forced : No
Audio #1
ID : 2
Format : AC-3
Format/Info : Audio Coding 3
Format settings, Endianness : Big
Codec ID : A_AC3
Duration : 1 h 46 min
Bit rate mode : Constant
Bit rate : 192 kb/s
Channel(s) : 2 channels
Channel positions : Front: L R
Sampling rate : 48.0 kHz
Frame rate : 31.250 FPS (1536 SPF)
Bit depth : 16 bits
Compression mode : Lossy
Delay relative to video : 28 ms
Stream size : 146 MiB (7%)
Language : Russian
Service kind : Complete Main
Default : Yes
Forced : No
Audio #2
ID : 3
Format : AC-3
Format/Info : Audio Coding 3
Format settings, Endianness : Big
Codec ID : A_AC3
Duration : 1 h 46 min
Bit rate mode : Constant
Bit rate : 192 kb/s
Channel(s) : 2 channels
Channel positions : Front: L R
Sampling rate : 48.0 kHz
Frame rate : 31.250 FPS (1536 SPF)
Bit depth : 16 bits
Compression mode : Lossy
Delay relative to video : 24 ms
Stream size : 146 MiB (7%)
Language : English
Service kind : Complete Main
Default : No
Forced : No

Скриншот c названием фильма

МОИ РАЗДАЧИ НА РУТРЕКЕРЕ: https://cybertorrent.ru/tracker.php?rid=27390064
[opentorrent.pro].t3493.torrent 
Торрент: Зарегистрирован [ 2019-06-08 16:51 ] · E82A0333098003E7567E5B0530BC0A5A0C6846D2

Скачать .torrent

Скачать

11 KB

Статус: проверено
Скачан: 0 раз
Размер: 2,07 GB  ·  Тип торрента
terms.php
Профиль [ЛС]
Показать сообщения:    

Текущее время: 25-Май 03:36

Часовой пояс: UTC ± 0



Вы не можете начинать темы
Вы не можете отвечать на сообщения
Вы не можете редактировать свои сообщения
Вы не можете удалять свои сообщения
Вы не можете голосовать в опросах
Вы не можете прикреплять файлы к сообщениям
Вы можете скачивать файлы