Статистика раздачи
Размер:  2,18 GB   |    Зарегистрирован:  1 год 2 месяца   |    Скачан:  0 раз
DL-List: Нет

Полного источника не было: Никогда

 
     
 
 

солнышко ®

Пол:
Не указан
Стаж:
1 год 4 месяца
Сообщений:
720

Сирано. Успеть до премьеры / Edmond
Страна: Франция, Бельгия
Жанр: драма, комедия, история
Год выпуска: 2018
Продолжительность: 01:52:16-Перевод: Профессиональный (многоголосый закадровый) | iTunes
Субтитры: французские
Оригинальная аудиодорожка: французский-Режиссер: Алексис Михалик / Alexis Michalik-В ролях: Тома Соливерес, Оливье Гурме, Матильда Сенье, Том Либ, Люси Бужена, Элис де Ланкесэ, Клементин Селарье, Игорь Готсман, Доминик Пинон, Симон Абкарян-Описание: Декабрь 1897 года, Париж. Эдмону Ростану нет и тридцати, а у него двое детей, которых надо кормить и одевать. Прошло уже два года, как он не может ничего написать. В отчаянии он обещает своему патрону принести новую грандиозную и уморительную пьесу в стихах. Обрадованный патрон назначает дату премьеры. Проблема в том, что у Эдмона пока есть только одно название. Он непременно должен уложиться в строки, игнорируя капризы актрис, идиотские требования продюсеров, ревность собственной жены, любовные аферы его лучшего друга, и, несмотря на тот факт, что в его успех не верит никто, включая его самого.- -Качество видео: BDRip | Edmond.2018.BDREMUX.1080p.seleZen
Формат видео: AVI
Видео: 720x304 (2.37:1), 24.000 fps, XviD build 73 ~2002 kbps avg, 0.38 bit/pixel
Аудио: 48 kHz, AC3 Dolby Digital, 3/2 (L,C,R,l,r) + LFE ch, ~384 kbps | rus
Аудио: 48 kHz, AC3 Dolby Digital, 3/2 (L,C,R,l,r) + LFE ch, ~384 kbps | fre-Сэмпл-

MediaInfo

Код:Формат : AVI
Формат/Информация : Audio Video Interleave
Профиль формата : OpenDML
Размер файла : 2,18 Гбайт
Продолжительность : 1 ч. 52 м.
Общий поток : 2777 Кбит/сек
Название фильма : Сирано. Успеть до премьеры_2018_BDRip
Программа кодирования : VirtualDubMod 1.5.10.3 | www.virtualdub-fr.org || (build 2550/release)
Авторское право : порошков
Видео
Идентификатор : 0
Формат : MPEG-4 Visual
Профиль формата : Advanced Simple@L5
Настройки формата : BVOP1 / Custom Matrix
Параметр BVOP формата : 1
Параметр QPel формата : Нет
Параметр GMC формата : Без точки перехода
Параметр матрицы формата : Выборочная
Идентификатор кодека : XVID
Идентификатор кодека/Подсказка : XviD
Продолжительность : 1 ч. 52 м.
Битрейт : 1991 Кбит/сек
Ширина : 720 пикселей
Высота : 304 пикселя
Соотношение сторон : 2,35:1
Частота кадров : 24,000 кадра/сек
Цветовое пространство : YUV
Субдискретизация насыщенности : 4:2:0
Битовая глубина : 8 бит
Тип развёртки : Прогрессивная
Метод сжатия : С потерями
Бит/(Пиксели*Кадры) : 0.379
Размер потока : 1,56 Гбайт (72%)
Библиотека кодирования : XviD 73
Аудио #1
Идентификатор : 1
Формат : AC-3
Формат/Информация : Audio Coding 3
Коммерческое название : Dolby Digital
Идентификатор кодека : 2000
Продолжительность : 1 ч. 52 м.
Вид битрейта : Постоянный
Битрейт : 384 Кбит/сек
Каналы : 6 каналов
ChannelLayout : L R C LFE Ls Rs
Частота : 48,0 КГц
Частота кадров : 31,250 кадров/сек (1536 SPF)
Битовая глубина : 16 бит
Метод сжатия : С потерями
Размер потока : 308 Мбайт (14%)
Выравнивание : Разделение по промежуткам
Продолжительность промежутка : 42 мс. (1,00 видеокадр)
Время предзагрузки промежутка : 500 мс.
Заголовок : Rus
ServiceKind/String : Complete Main
Аудио #2
Идентификатор : 2
Формат : AC-3
Формат/Информация : Audio Coding 3
Коммерческое название : Dolby Digital
Идентификатор кодека : 2000
Продолжительность : 1 ч. 52 м.
Вид битрейта : Постоянный
Битрейт : 384 Кбит/сек
Каналы : 6 каналов
ChannelLayout : L R C LFE Ls Rs
Частота : 48,0 КГц
Частота кадров : 31,250 кадров/сек (1536 SPF)
Битовая глубина : 16 бит
Метод сжатия : С потерями
Размер потока : 308 Мбайт (14%)
Выравнивание : Разделение по промежуткам
Продолжительность промежутка : 42 мс. (1,00 видеокадр)
Время предзагрузки промежутка : 500 мс.
Заголовок : Fre
ServiceKind/String : Complete Main

Скриншоты


[opentorrent.pro].t3497.torrent 
Торрент: Зарегистрирован [ 2019-06-08 16:51 ] · C8C15D7FD520A73FB3E01CCD1858C9DF4DE490CA

Скачать .torrent

Скачать

12 KB

Статус: проверено
Скачан: 0 раз
Размер: 2,18 GB  ·  Тип торрента
terms.php
Профиль [ЛС]
Показать сообщения:    

Текущее время: 12-Авг 06:44

Часовой пояс: UTC ± 0



Вы не можете начинать темы
Вы не можете отвечать на сообщения
Вы не можете редактировать свои сообщения
Вы не можете удалять свои сообщения
Вы не можете голосовать в опросах
Вы не можете прикреплять файлы к сообщениям
Вы можете скачивать файлы