Статистика раздачи
Размер:  4,16 GB   |    Зарегистрирован:  1 год 2 месяца   |    Скачан:  0 раз
DL-List: Нет

Полного источника не было: Никогда

 
     
 
 

Гость ®

Пол:
Не указан

Оз: Великий и Ужасный
Oz the Great and Powerful
«Окажитесь в Стране Оз»- Страна: США
Жанр: фэнтези, приключения, комедия, семейный
Год выпуска: 2013
Продолжительность: 02:10:29
Перевод: Профессиональный (дублированный) Rus, Ukr
Субтитры: Rus (Forced, Full), Ukr (Forced, Full), Eng (Full, SDH, SDH Colored)
Оригинальная аудиодорожка: английский-Режиссер:
Сэм Рэйми | Sam Raimi
В ролях:
Джеймс Франко | James Franco
Мила Кунис | Mila Kunis
Рейчел Вайс | Rachel Weisz
Мишель Уильямс, Зак Брафф, Билл Коббс, Джои Кинг, Тони Кокс, Стивен Р. Харт, Эбигейл Спенсер.-Описание:Когда ураган забрасывает циркового фокусника Оскара Диггса из пыльного Канзаса в волшебную страну Оз, склонный к мошенничеству циркач полагает, что он поймал удачу за хвост — ведь с помощью своих трюков он с легкостью может добыть в новых землях и славу и богатство.
Однако его ждёт встреча с тремя чародейками, Теодорой, Эванорой и Глиндой, которые сомневаются в том, тот ли это великий волшебник, появления которого ждали легковерные жители страны Оз. Волей-неволей, пришелец оказывается втянутым в противостояние эпического масштаба, и ему приходится использовать весь свой «магический» арсенал, с добавлением толики настоящего волшебства.-Sample

IMDb: 6.30 (191 968)-Качество: BDRip-AVC | Формат: MKV | Blu-ray disc 1080p
Видео: AVC 3213 kb/s 1104 x 460 (2.400) 23.976 fps
Аудио 1: Russian AC-3 448 kb/s 6 channels, 48.0 kHz
Аудио 2: Ukrainian AC-3 448 kb/s 6 channels, 48.0 kHz
Аудио 3: English AC-3 448 kb/s 6 channels, 48.0 kHz | Original
Формат субтитров: srt

Скриншоты



MI | Log

Log

x264 [info]: frame I:1665 Avg QP:13.30 size: 93889
x264 [info]: frame P:46214 Avg QP:16.03 size: 33497
x264 [info]: frame B:139853 Avg QP:18.65 size: 10299
x264 [info]: consecutive B-frames: 3.2% 3.6% 11.4% 33.3% 17.9% 23.8% 3.8% 1.9% 0.7% 0.3% 0.3%
x264 [info]: mb I I16..4: 12.1% 63.1% 24.8%
x264 [info]: mb P I16..4: 0.4% 11.7% 1.9% P16..4: 23.5% 30.6% 17.1% 4.7% 0.7% skip: 9.4%
x264 [info]: mb B I16..4: 0.1% 1.5% 0.2% B16..8: 27.4% 22.6% 5.3% direct: 6.7% skip:36.1% L0:39.8% L1:39.5% BI:20.7%
x264 [info]: 8x8 transform intra:80.4% inter:46.9%
x264 [info]: direct mvs spatial:100.0% temporal:0.0%
x264 [info]: coded y,uvDC,uvAC intra: 94.5% 82.0% 76.5% inter: 25.4% 25.6% 14.2%
x264 [info]: i16 v,h,dc,p: 37% 6% 10% 47%
x264 [info]: i8 v,h,dc,ddl,ddr,vr,hd,vl,hu: 12% 10% 9% 9% 12% 12% 12% 12% 14%
x264 [info]: i4 v,h,dc,ddl,ddr,vr,hd,vl,hu: 14% 7% 5% 9% 15% 13% 13% 11% 13%
x264 [info]: i8c dc,h,v,p: 41% 28% 15% 17%
x264 [info]: Weighted P-Frames: Y:6.3% UV:4.3%
x264 [info]: ref P L0: 51.3% 11.1% 15.0% 5.8% 4.5% 3.2% 3.4% 1.5% 1.5% 1.2% 1.3% 0.1% 0.0%
x264 [info]: ref B L0: 76.0% 10.6% 5.0% 2.4% 1.8% 1.4% 1.2% 0.9% 0.5% 0.2%
x264 [info]: ref B L1: 95.3% 4.7%
x264 [info]: kb/s:3212.98
x264 [total]: encoded 187732 frames, 15.05 fps, 3212.98 kb/s
Format : Matroska
Format version : Version 4
File size : 4.16 GiB
Duration : 2 h 10 min
Overall bit rate : 4 560 kb/s
Movie name : Release for rutracker.org
Encoded date : UTC 2019-06-07 20:39:37
Writing application : mkvmerge v8.2.0 ('World of Adventure') 64bit
Writing library : libebml v1.3.1 + libmatroska v1.4.2
Video
ID : 1
Format : AVC
Format/Info : Advanced Video Codec
Format profile : High@L4.1
Format settings : CABAC / 11 Ref Frames
Format settings, CABAC : Yes
Format settings, Reference frames : 11 frames
Codec ID : V_MPEG4/ISO/AVC
Duration : 2 h 10 min
Bit rate : 3 213 kb/s
Width : 1 104 pixels
Height : 460 pixels
Display aspect ratio : 2.40:1
Frame rate mode : Constant
Frame rate : 23.976 (24000/1001) FPS
Color space : YUV
Chroma subsampling : 4:2:0
Bit depth : 8 bits
Scan type : Progressive
Bits/(Pixel*Frame) : 0.264
Stream size : 2.93 GiB (70%)
Title : Oz the Great and Powerful (2013).rutracker.org
Writing library : x264 core 157 r2969 d4099dd
Encoding settings : cabac=1 / ref=11 / deblock=1:-3:-2 / analyse=0x3:0x133 / me=umh / subme=11 / psy=1 / psy_rd=1.00:0.05 / mixed_ref=1 / me_range=48 / chroma_me=1 / trellis=2 / 8x8dct=1 / cqm=0 / deadzone=21,11 / fast_pskip=0 / chroma_qp_offset=-3 / threads=12 / lookahead_threads=3 / sliced_threads=0 / nr=0 / decimate=1 / interlaced=0 / bluray_compat=0 / constrained_intra=0 / bframes=10 / b_pyramid=2 / b_adapt=2 / b_bias=0 / direct=3 / weightb=1 / open_gop=0 / weightp=2 / keyint=250 / keyint_min=23 / scenecut=40 / intra_refresh=0 / rc_lookahead=60 / rc=crf / mbtree=0 / crf=16.4 / qcomp=0.60 / qpmin=0 / qpmax=69 / qpstep=4 / vbv_maxrate=50000 / vbv_bufsize=62500 / crf_max=0.0 / nal_hrd=none / filler=0 / ip_ratio=1.40 / pb_ratio=1.30 / aq=3:0.90
Language : English
Default : Yes
Forced : No
Audio #1
ID : 2
Format : AC-3
Format/Info : Audio Coding 3
Commercial name : Dolby Digital
Codec ID : A_AC3
Duration : 2 h 10 min
Bit rate mode : Constant
Bit rate : 448 kb/s
Channel(s) : 6 channels
Channel layout : L R C LFE Ls Rs
Sampling rate : 48.0 kHz
Frame rate : 31.250 FPS (1536 SPF)
Bit depth : 16 bits
Compression mode : Lossy
Stream size : 418 MiB (10%)
Title : DUB
Language : Russian
Service kind : Complete Main
Default : Yes
Forced : No
Audio #2
ID : 3
Format : AC-3
Format/Info : Audio Coding 3
Commercial name : Dolby Digital
Codec ID : A_AC3
Duration : 2 h 10 min
Bit rate mode : Constant
Bit rate : 448 kb/s
Channel(s) : 6 channels
Channel layout : L R C LFE Ls Rs
Sampling rate : 48.0 kHz
Frame rate : 31.250 FPS (1536 SPF)
Bit depth : 16 bits
Compression mode : Lossy
Stream size : 418 MiB (10%)
Title : DUB
Language : Ukrainian
Service kind : Complete Main
Default : No
Forced : No
Audio #3
ID : 4
Format : AC-3
Format/Info : Audio Coding 3
Commercial name : Dolby Digital
Codec ID : A_AC3
Duration : 2 h 10 min
Bit rate mode : Constant
Bit rate : 448 kb/s
Channel(s) : 6 channels
Channel layout : L R C LFE Ls Rs
Sampling rate : 48.0 kHz
Frame rate : 31.250 FPS (1536 SPF)
Bit depth : 16 bits
Compression mode : Lossy
Stream size : 418 MiB (10%)
Title : Original
Language : English
Service kind : Complete Main
Default : No
Forced : No
Text #1
ID : 5
Format : UTF-8
Codec ID : S_TEXT/UTF8
Codec ID/Info : UTF-8 Plain Text
Duration : 2 h 3 min
Bit rate : 0 b/s
Count of elements : 7
Stream size : 196 Bytes (0%)
Title : Forced
Language : Russian
Default : Yes
Forced : No
Text #2
ID : 6
Format : UTF-8
Codec ID : S_TEXT/UTF8
Codec ID/Info : UTF-8 Plain Text
Duration : 2 h 3 min
Bit rate : 71 b/s
Count of elements : 1587
Stream size : 65.1 KiB (0%)
Title : Full
Language : Russian
Default : No
Forced : No
Text #3
ID : 7
Format : UTF-8
Codec ID : S_TEXT/UTF8
Codec ID/Info : UTF-8 Plain Text
Duration : 1 h 33 min
Bit rate : 0 b/s
Count of elements : 4
Stream size : 121 Bytes (0%)
Title : Forced
Language : Ukrainian
Default : No
Forced : No
Text #4
ID : 8
Format : UTF-8
Codec ID : S_TEXT/UTF8
Codec ID/Info : UTF-8 Plain Text
Duration : 2 h 3 min
Bit rate : 75 b/s
Count of elements : 1592
Stream size : 68.2 KiB (0%)
Title : Full
Language : Ukrainian
Default : No
Forced : No
Text #5
ID : 9
Format : UTF-8
Codec ID : S_TEXT/UTF8
Codec ID/Info : UTF-8 Plain Text
Duration : 2 h 7 min
Bit rate : 49 b/s
Count of elements : 1708
Stream size : 46.1 KiB (0%)
Title : Full
Language : English
Default : No
Forced : No
Text #6
ID : 10
Format : UTF-8
Codec ID : S_TEXT/UTF8
Codec ID/Info : UTF-8 Plain Text
Duration : 2 h 9 min
Bit rate : 55 b/s
Count of elements : 2011
Stream size : 52.3 KiB (0%)
Title : SDH
Language : English
Default : No
Forced : No
Text #7
ID : 11
Format : UTF-8
Codec ID : S_TEXT/UTF8
Codec ID/Info : UTF-8 Plain Text
Duration : 2 h 9 min
Bit rate : 70 b/s
Count of elements : 2011
Stream size : 67.1 KiB (0%)
Title : SDH Colored
Language : English
Default : No
Forced : No
Menu
00:00:00.000 : en:Chapter 01
00:02:37.699 : en:Chapter 02
00:06:16.959 : en:Chapter 03
00:09:57.555 : en:Chapter 04
00:11:32.691 : en:Chapter 05
00:15:20.753 : en:Chapter 06
00:17:47.191 : en:Chapter 07
00:20:29.478 : en:Chapter 08
00:24:01.982 : en:Chapter 09
00:24:49.779 : en:Chapter 10
00:27:01.661 : en:Chapter 11
00:29:37.358 : en:Chapter 12
00:32:43.419 : en:Chapter 13
00:34:30.193 : en:Chapter 14
00:37:22.657 : en:Chapter 15
00:38:57.376 : en:Chapter 16
00:40:39.145 : en:Chapter 17
00:42:09.944 : en:Chapter 18
00:42:52.444 : en:Chapter 19
00:45:33.480 : en:Chapter 20
00:47:22.839 : en:Chapter 21
00:48:32.409 : en:Chapter 22
00:53:29.831 : en:Chapter 23
00:55:22.652 : en:Chapter 24
00:57:15.932 : en:Chapter 25
00:59:10.838 : en:Chapter 26
01:02:05.263 : en:Chapter 27
01:05:33.220 : en:Chapter 28
01:06:21.102 : en:Chapter 29
01:09:55.774 : en:Chapter 30
01:12:20.836 : en:Chapter 31
01:15:37.783 : en:Chapter 32
01:18:20.320 : en:Chapter 33
01:19:47.782 : en:Chapter 34
01:21:27.882 : en:Chapter 35
01:26:16.170 : en:Chapter 36
01:28:08.783 : en:Chapter 37
01:30:33.219 : en:Chapter 38
01:34:24.116 : en:Chapter 39
01:36:57.436 : en:Chapter 40
01:37:35.975 : en:Chapter 41
01:41:30.876 : en:Chapter 42
01:42:30.394 : en:Chapter 43
01:45:51.762 : en:Chapter 44
[opentorrent.pro].t3502.torrent 
Торрент: Зарегистрирован [ 2019-06-08 16:51 ] · FC23B2157D09A126D9DA476B92B4F32CC64F2596

Скачать .torrent

Скачать

11 KB

Статус: проверено
Скачан: 0 раз
Размер: 4,16 GB  ·  Тип торрента
terms.php
Показать сообщения:    

Текущее время: 12-Авг 03:30

Часовой пояс: UTC ± 0



Вы не можете начинать темы
Вы не можете отвечать на сообщения
Вы не можете редактировать свои сообщения
Вы не можете удалять свои сообщения
Вы не можете голосовать в опросах
Вы не можете прикреплять файлы к сообщениям
Вы можете скачивать файлы