Статистика раздачи
Размер:  745 MB   |    Зарегистрирован:  1 год 2 месяца   |    Скачан:  0 раз
DL-List: Нет
Сидов:  1  [  0 KB/s  ]  
 
     
 
 

солнышко ®

Пол:
Не указан
Стаж:
1 год 4 месяца
Сообщений:
720

Ты никогда не будешь один / Ты никогда не останешься один / Nunca vas a estar solo / You’ll never be alone
Страна: Чили
Год выпуска: 2016
Жанр: драма, транс-тема
Продолжительность: 01:21:11
Перевод: Любительский (двухголосый закадровый) - Странные миры (Ruben Mendez и Леонора)
Оригинальная аудиодорожка: испанский
Субтитры: русские (R.G. "Rainbow World")
Режиссёр: Алекс Анвандтер / Alex Anwandter
В ролях: Эндрю Баргстэд (Пабло), Серхио Эрнандес (отец), Хайме Лейва (Феликс), Астрид Ролдан (Мари), Габриэла Эрнандес (сеньора Люси), Антония Зегерс (Ана), Эдгардо Бруна (Бруно), Бенджамин Вестфалл (Мартин), Октавио Наваррете (Родриго)
Описание: Пабло - нежный и женственный подросток, увлекающийся танцами и музыкой. Он живёт вместе с отцом, который всё время пропадает на работе (на фабрике манекенов). Однажды парня жестоко избивают хулиганы, и отец узнаёт всю правду о своём сыне. Когда мужчина нигде не находит помощи, он самостоятельно ищет виновных и принимает решение на свой риск.
Основано на реальных событиях.
Награды:
Берлинский международный кинофестиваль (Berlin International Film Festival), Берлин, Германия. 2016:
Победитель - Премия Тедди (приз от жюри, лучший фильм по ЛГБТ-тематике)

Seattle International Film Festival, Сиэтл, США, 2016:
Победитель - Лучший испаноязычный фильм
Международный кинофестиваль в Сантьяго, Чили, 2016:
Победитель - Приз зрительских симпатий
Festival de films LGBTQI "Des Images Aux Mots", Тулуза, Франция, 2016:
Победитель - Специальный приз жюри
LesGaiCineMad, Madrid International LGBT Film Festival, Мадрид, Испания, 2016:
Победитель - Лучший режиссёр (Алекс Анвандтер)
Сэмпл: https://www.sendspace.com/file/69bvmr
Качество видео: HDRip-AVC
Формат видео: MKV
Видео: AVC; 752 x 320 (2,35:1); 23,976 кадров/сек; 960 Кбит/сек
Аудио 1: AAC; 48 КГц; 160 Кбит/сек; 2 канала; DVO (Русский, Странные миры)
Аудио 2: AAC; 48 КГц; 160 Кбит/сек; 2 канала; Оригинал (Испанский)
Субтитры: русские (отключаемые, SRT)

MediaInfo

Общее
Формат : Matroska
Версия формата : Version 4 / Version 2
Размер файла : 745 Мбайт
Продолжительность : 1 ч. 21 м.
Общий поток : 1283 Кбит/сек
Дата кодирования : UTC 2019-05-17 14:10:52
Программа кодирования : mkvmerge v24.0.0 ('Beyond The Pale') 32-bit
Библиотека кодирования : libebml v1.3.6 + libmatroska v1.4.9
Видео
Идентификатор : 1
Формат : AVC
Формат/Информация : Advanced Video Codec
Профиль формата : High@L3
Настройки формата : CABAC / 7 Ref Frames
Параметр CABAC формата : Да
Параметр RefFrames формата : 7 кадров
Идентификатор кодека : V_MPEG4/ISO/AVC
Продолжительность : 1 ч. 21 м.
Битрейт : 960 Кбит/сек
Ширина : 752 пикселя
Высота : 320 пикселей
Соотношение сторон : 2,35:1
Режим частоты кадров : Постоянный
Частота кадров : 23,976 (24000/1001) кадра/сек
Цветовое пространство : YUV
Субдискретизация насыщенности : 4:2:0
Битовая глубина : 8 бит
Тип развёртки : Прогрессивная
Бит/(Пиксели*Кадры) : 0.166
Размер потока : 557 Мбайт (75%)
Библиотека кодирования : x264 core 155 r2901 7d0ff22
Настройки программы : cabac=1 / ref=7 / deblock=1:0:0 / analyse=0x3:0x113 / me=umh / subme=9 / psy=1 / psy_rd=1.00:0.00 / mixed_ref=1 / me_range=24 / chroma_me=1 / trellis=1 / 8x8dct=1 / cqm=0 / deadzone=21,11 / fast_pskip=1 / chroma_qp_offset=-2 / threads=10 / lookahead_threads=1 / sliced_threads=0 / nr=0 / decimate=1 / interlaced=0 / bluray_compat=0 / constrained_intra=0 / bframes=7 / b_pyramid=2 / b_adapt=1 / b_bias=0 / direct=1 / weightb=1 / open_gop=0 / weightp=2 / keyint=240 / keyint_min=23 / scenecut=40 / intra_refresh=0 / rc_lookahead=40 / rc=2pass / mbtree=1 / bitrate=960 / ratetol=1.0 / qcomp=0.60 / qpmin=0 / qpmax=69 / qpstep=4 / cplxblur=20.0 / qblur=0.5 / ip_ratio=1.40 / aq=1:1.00
Default : Да
Forced : Нет
Аудио #1
Идентификатор : 2
Формат : AAC
Формат/Информация : Advanced Audio Codec
Профиль формата : LC
Идентификатор кодека : A_AAC-2
Продолжительность : 1 ч. 21 м.
Битрейт : 160 Кбит/сек
Каналы : 2 канала
Расположение каналов : Front: L R
Частота : 48,0 КГц
Частота кадров : 46,875 кадров/сек (1024 SPF)
Метод сжатия : С потерями
Размер потока : 92,9 Мбайт (12%)
Заголовок : Странные миры
Язык : Russian
Default : Да
Forced : Нет
Аудио #2
Идентификатор : 3
Формат : AAC
Формат/Информация : Advanced Audio Codec
Профиль формата : LC
Идентификатор кодека : A_AAC-2
Продолжительность : 1 ч. 21 м.
Битрейт : 160 Кбит/сек
Каналы : 2 канала
Расположение каналов : Front: L R
Частота : 48,0 КГц
Частота кадров : 46,875 кадров/сек (1024 SPF)
Метод сжатия : С потерями
Размер потока : 92,9 Мбайт (12%)
Язык : Spanish
Default : Нет
Forced : Нет
Текст
Идентификатор : 4
Формат : UTF-8
Идентификатор кодека : S_TEXT/UTF8
Идентификатор кодека/Информация : UTF-8 Plain Text
Продолжительность : 1 ч. 12 м.
Битрейт : 73 бит/сек
ElementCount : 747
Размер потока : 38,9 Кбайт (0%)
Язык : Russian
Default : Нет
Forced : Нет

Скриншот c названием фильма

Если у кого есть желание ознакомиться с другими художественными и документальными фильмами , сериалами , мультфильмами и аниме, передачами по ЛГБТ-тематике , то на Рутрекере есть тема ЛГБТ в кинематографе . Также смотрите темы Кино Латинской Америки и Зарубежные драмы 1990-2000-х с трагическим концом или остросоциальные или мрачные криминальные драмы .
[opentorrent.pro].t3503.torrent 
Торрент: Зарегистрирован [ 2019-06-08 16:51 ] · 3916D13EC97DA2BD68D8B5E2BBA120755C10CE35

Скачать .torrent

Скачать

15 KB

Статус: проверено
Скачан: 0 раз
Размер: 745 MB  ·  Тип торрента
terms.php
Профиль [ЛС]
Показать сообщения:    

Текущее время: 08-Авг 20:20

Часовой пояс: UTC ± 0



Вы не можете начинать темы
Вы не можете отвечать на сообщения
Вы не можете редактировать свои сообщения
Вы не можете удалять свои сообщения
Вы не можете голосовать в опросах
Вы не можете прикреплять файлы к сообщениям
Вы можете скачивать файлы