Статистика раздачи
Размер:  2,44 GB   |    Зарегистрирован:  11 месяцев 19 дней   |    Скачан:  0 раз
DL-List: Нет
Сидов:  64  [  0 KB/s  ]   Личеров:  8  [  0 KB/s  ]  
 
     
 
 

Гость ®

Пол:
Не указан

На рассвете
Год выпуска: 2018
Производство: Россия,ООО «Доминика», Golden Key Entertainment
Жанр: Мелодрама
Продолжительность: 4 x ~ 00:47:00
Субтитры: Отсутствуют
Режиссёр: Алексей Мясников
В ролях: Анна Старшенбаум, Тимофей Каратаев, Вячеслав Крикунов, Александр Макогон, Игорь Филиппов, Мария Малиновская, Алексей Тихонов, Дарья Храмцова, Александр Хмельницкий, Максим Бобков, Маруся Пестунова, Андрей Гринев, Лина Весёлкина, Андрей Лёвин, Михаил Шамигулов, Виктор Власов, Анастасия Кильбург, Леонид Ардо, Альберт Бартош, Вера Александрова (II), Мария Букнис
Описание: В благополучной семье Виноградовых случается горе — глава семьи Роман погибает на охоте. А спустя некоторое время его дочь Елена узнает о любовной связи своей матери Ирины с партнером отца — Борисом. Устроив скандал своей матери, Лена не справляется с управлением автомобиля и попадает в аварию… Когда Лена приходит в себя, всем становится понятно, что из памяти девушки стерты несколько последних лет жизни. Она ничего не помнит ни про смерть отца, ни про предательство матери, вероятно, причастной к смерти главы семьи, а еще Лена забыла Сергея… за которого собиралась замуж.
Автор релиза:
Реклама: Отсутствует
Сэмпл: http://sendfile.su/1498871
Качество: SATRip
Формат: AVI
Видео кодек: XviD
Аудио кодек: MP3
Видео: XviD, 720x400, ~ 1700 Кбит/с, 0.236 bit/pixel
Аудио: МР3, 2 ch, 192 Кбит/с

MI

Общее
Полное имя : D:\На.Рассвете.XviD.2018.SATRp.7turza\01.На.Рассвете.7turza.avi
Формат : AVI
Формат/Информация : Audio Video Interleave
Размер файла : 665 Мбайт
Продолжительность : 48 м. 53 с.
Общий поток : 1902 Кбит/сек
Программа кодирования : Lavf58.20.100
Библиотека кодирования : VirtualDub build 35576/release
Видео
Идентификатор : 0
Формат : MPEG-4 Visual
Профиль формата : Advanced Simple@L5
Настройки формата : BVOP1
Параметр BVOP формата : 1
Параметр QPel формата : Нет
Параметр GMC формата : Без точки перехода
Параметр матрицы формата : Default (H.263)
Идентификатор кодека : XVID
Идентификатор кодека/Подсказка : XviD
Продолжительность : 48 м. 53 с.
Битрейт : 1697 Кбит/сек
Ширина : 720 пикселей
Высота : 400 пикселей
Соотношение сторон : 16:9
Частота кадров : 25,000 кадров/сек
Цветовое пространство : YUV
Субдискретизация насыщенности : 4:2:0
Битовая глубина : 8 бит
Тип развёртки : Прогрессивная
Бит/(Пиксели*Кадры) : 0.236
Размер потока : 593 Мбайт (89%)
Библиотека кодирования : XviD 67
Аудио
Идентификатор : 1
Формат : MPEG Audio
Версия формата : Version 1
Профиль формата : Layer 3
Настройки формата : Joint stereo / MS Stereo
Идентификатор кодека : 55
Идентификатор кодека/Подсказка : MP3
Продолжительность : 48 м. 53 с.
Вид битрейта : Постоянный
Битрейт : 192 Кбит/сек
Каналы : 2 канала
Частота : 48,0 КГц
Размер потока : 67,1 Мбайт (10%)
Выравнивание : Соединение по промежуткам
Продолжительность промежутка : 24 мс. (0,60 видеокадр)
Время предзагрузки промежутка : 504 мс.
Библиотека кодирования : LAME3.100

Скриншоты

Предыдущие и альтернативные раздачи
[opentorrent.pro].t3510.torrent 
Торрент: Зарегистрирован [ 2019-06-08 16:51 ] · 8AC1B658BF33D2FD98B5D5C367598D4C9929B988

Скачать .torrent

Скачать

13 KB

Статус: проверено
Скачан: 0 раз
Размер: 2,44 GB  ·  Тип торрента
terms.php
Показать сообщения:    

Текущее время: 28-Май 15:52

Часовой пояс: UTC ± 0



Вы не можете начинать темы
Вы не можете отвечать на сообщения
Вы не можете редактировать свои сообщения
Вы не можете удалять свои сообщения
Вы не можете голосовать в опросах
Вы не можете прикреплять файлы к сообщениям
Вы можете скачивать файлы