Статистика раздачи
Размер:  1,44 GB   |    Зарегистрирован:  1 год 1 месяц   |    Скачан:  0 раз
DL-List: Нет

Полного источника не было: Никогда

 
     
 
 

serzh ®

Пол:
Не указан
Стаж:
1 год 4 месяца
Сообщений:
442

Зловещие мертвецы 2 / Evil Dead II
Страна: США
Жанр: Ужасы, триллер
Год выпуска: 1987
Продолжительность: 01:24:16
Перевод: Одноголосый закадровый (Сергей Авдеенко)
Субтитры: нет
Режиссер: Сэм Рэйми / Sam Raimi
В ролях: Брюс Кэмпбелл
Сара Берри
Дэн Хикс
Кэсси ДеПайва
Тед Рэйми
Дениз Бикслер
Ричард Домайер
Джон Пикс
Лу Хэнкок
Сноуи Уинтерс
Описание: Главный герой кинокартины молодой человек по имени Эш, с течением времени вынужден снова вернуться в ужасную хижину в лесу. Также в позднее время ночи, в эту хижину прибывают еще гости. Среди которых дочь владельца хижины, легендарного ученого археолога, по имени Энни Ноуби, а также ее трое приятелей. Энни объединяет свои усилия с Эшем, чтобы раз и навсегда уничтожить кандарийских демонов. Однако попытки избавится от сил зла, были пустыми. Единственным выходом из сложившейся ситуации является уничтожение книги под названием Некрономикон. Именно она своим заклинанием вызвала силы зла, и уничтожить ее не так-то просто. Для этого ребятам необходимо будет открыть временной портал. Удастся ли героям фильма справиться с поставленной задачей...?
Доп. информация: За звуковую дорожку с VHS спасибо mars1574 , а также мне за синхрон дорожки

Видеоряд https://cybertorrent.ru/viewtopic.php?t=5668888
Сэмпл: https://yadi.sk/i/TU_WmN2MX5J8EQ
Качество видео: HDRip
Формат видео: AVI
Видео: XviD , 720x384(1.80:1), 23.976 fps, 2 248 Kbps
Аудио: AC3 , 48 kHz , 192.00 kbps avg , 2/0 (L,R) ch

MediaInfo

Complete name Зловещие мертвецы 2 - 1987 (VO Сергей Авдеенко ).avi
Format : AVI
Format/Info : Audio Video Interleave
File size : 1.44 GiB
Duration : 1h 24mn
Overall bit rate : 2 449 Kbps
Writing application : VirtualDubMod 1.5.10.3 | www.virtualdub-fr.org || (build 2550/release)
Writing library : VirtualDub build 35491/release
Video
ID : 0
Format : MPEG-4 Visual
Format profile : Advanced Simple@L5
Format settings, BVOP : 2
Format settings, QPel : No
Format settings, GMC : No warppoints
Format settings, Matrix : Custom
Codec ID : XVID
Codec ID/Hint : XviD
Duration : 1h 24mn
Bit rate : 2 248 Kbps
Width : 720 pixels
Height : 384 pixels
Display aspect ratio : 1.85:1
Frame rate : 23.976 (23976/1000) fps
Color space : YUV
Chroma subsampling : 4:2:0
Bit depth : 8 bits
Scan type : Progressive
Compression mode : Lossy
Bits/(Pixel*Frame) : 0.339
Stream size : 1.32 GiB (92%)
Writing library : XviD 73
Audio
ID : 1
Format : AC-3
Format/Info : Audio Coding 3
Mode extension : CM (complete main)
Format settings, Endianness : Big
Codec ID : 2000
Duration : 1h 24mn
Bit rate mode : Constant
Bit rate : 192 Kbps
Channel(s) : 2 channels
Channel positions : Front: L R
Sampling rate : 48.0 KHz
Frame rate : 31.250 fps (1536 spf)
Compression mode : Lossy
Stream size : 116 MiB (8%)
Alignment : Aligned on interleaves
Interleave, duration : 42 ms (1.00 video frame)
Interleave, preload duratio : 512 ms

Скриншоты

[opentorrent.pro].t3514.torrent 
Торрент: Зарегистрирован [ 2019-06-08 16:51 ] · 10BB00A93453FBC6EBB16B864B5356184FB0DB0B

Скачать .torrent

Скачать

15 KB

Статус: проверено
Скачан: 0 раз
Размер: 1,44 GB  ·  Тип торрента
terms.php
Профиль [ЛС]
Показать сообщения:    

Текущее время: 16-Июл 13:00

Часовой пояс: UTC ± 0



Вы не можете начинать темы
Вы не можете отвечать на сообщения
Вы не можете редактировать свои сообщения
Вы не можете удалять свои сообщения
Вы не можете голосовать в опросах
Вы не можете прикреплять файлы к сообщениям
Вы можете скачивать файлы