Статистика раздачи
Размер:  1,57 GB   |    Зарегистрирован:  11 месяцев 25 дней   |    Скачан:  0 раз
DL-List: Нет

Полного источника не было: Никогда

 
     
 
 

serzh ®

Пол:
Не указан
Стаж:
1 год 2 месяца
Сообщений:
442

Зловещие мертвецы 2 / Демоны 2 / Evil Dead II
Страна: США
Жанр: ужасы, триллер
Год выпуска: 1987
Продолжительность: 01:24:16

Перевод: Одноголосый закадровый Неизвестный - VHS
Перевод 2: Одноголосый закадровый Сергей Авдеенко (отдельно)
Субтитры: нет
Режиссер: Сэм Рэйми / Sam Raimi
В ролях: Брюс Кэмпбелл, Сара Берри, Дэн Хикс, Кэсси ДеПайва, Тед Рейми, Дениз Бикслер, Ричард Домайер, Джон Пикс, Лу Хэнкок
Описание: Главный герой кинокартины молодой человек по имени Эш, с течением времени вынужден снова вернуться в ужасную хижину в лесу. Также в позднее время ночи, в эту хижину прибывают еще гости. Среди которых дочь владельца хижины, легендарного ученого археолога, по имени Энни Ноуби, а также ее трое приятелей. Энни объединяет свои усилия с Эшем, чтобы раз и навсегда уничтожить кандарийских демонов. Однако попытки избавится от сил зла, были пустыми. Единственным выходом из сложившейся ситуации является уничтожение книги под названием Некрономикон. Именно она своим заклинанием вызвала силы зла, и уничтожить ее не так-то просто. Для этого ребятам необходимо будет открыть временной портал. Удастся ли героям фильма справиться с поставленной задачей...?
Доп. информация: Выражаю огромную благодарность Нордеру, за синхронизацию звуковых дорожек. За дорогу благодарим 21Sepsis и mars1574

Сэмпл: http://multi-up.com/1233921
Качество видео: НDRip (Исходник BDRip 1080p)
Формат видео: AVI
Видео: XviD 73, 720x384, (1,85:1), 23,976 fps, 2248 Кбит/с, 8 бит, 0.33 bit/pixel
Аудио: Русский (АС3, 2 ch (Front: L R), 48,0 KHz, 224 Kbps) Неизвестный - VHS
Аудио 2: Русский (АС3, 2 ch (Front: L R), 48,0 KHz, 192 Kbps) Сергей Авдеенко (отдельно)

MediaInfo

Общее
Полное имя : H:\Фильмы на трекер\Зловещие мертвецы 2 (ужасы, триллер 1987 год).avi
Формат : AVI
Формат/Информация : Audio Video Interleave
Размер файла : 1,46 Гбайт
Продолжительность : 1 ч. 24 м.
Общий поток : 2481 Кбит/сек
Программа кодирования : VirtualDubMod 1.5.10.3 | www.virtualdub-fr.org || (build 2550/release)
Библиотека кодирования : VirtualDubMod build 2550/release
Видео
Идентификатор : 0
Формат : MPEG-4 Visual
Профиль формата : Advanced Simple@L5
Параметр BVOP формата : 2
Параметр QPel формата : Нет
Параметр GMC формата : Без точки перехода
Параметр матрицы формата : Выборочная
Идентификатор кодека : XVID
Идентификатор кодека/Подсказка : XviD
Продолжительность : 1 ч. 24 м.
Битрейт : 2248 Кбит/сек
Ширина : 720 пикселей
Высота : 384 пикселя
Соотношение сторон : 1,85:1
Частота кадров : 23,976 (23976/1000) кадра/сек
Цветовое пространство : YUV
Субдискретизация насыщенности : 4:2:0
Битовая глубина : 8 бит
Тип развёртки : Прогрессивная
Метод сжатия : С потерями
Бит/(Пиксели*Кадры) : 0.339
Размер потока : 1,32 Гбайт (91%)
Библиотека кодирования : XviD 73
Аудио
Идентификатор : 1
Формат : AC-3
Формат/Информация : Audio Coding 3
Расширение режима : CM (complete main)
Параметр Endianness формата : Big
Идентификатор кодека : 2000
Продолжительность : 1 ч. 24 м.
Вид битрейта : Постоянный
Битрейт : 224 Кбит/сек
Каналы : 2 канала
Расположение каналов : Front: L R
Частота : 48,0 КГц
Частота кадров : 31,250 кадров/сек (1536 spf)
Метод сжатия : С потерями
Размер потока : 135 Мбайт (9%)
Выравнивание : Разделение по промежуткам
Продолжительность промежутка : 42 мс. (1,00 видеокадр)
Время предзагрузки промежутка : 500 мс.

Скриншот c названием фильма

Скриншоты

[opentorrent.pro].t3517.torrent 
Торрент: Зарегистрирован [ 2019-06-09 17:16 ] · 77DF39ACFB7604D93D4B886B84346F8B3E5DA450

Скачать .torrent

Скачать

16 KB

Статус: проверено
Скачан: 0 раз
Размер: 1,57 GB  ·  Тип торрента
terms.php
Профиль [ЛС]
Показать сообщения:    

Текущее время: 04-Июн 22:07

Часовой пояс: UTC ± 0



Вы не можете начинать темы
Вы не можете отвечать на сообщения
Вы не можете редактировать свои сообщения
Вы не можете удалять свои сообщения
Вы не можете голосовать в опросах
Вы не можете прикреплять файлы к сообщениям
Вы можете скачивать файлы