Статистика раздачи
Размер:  2,33 GB   |    Зарегистрирован:  1 год 1 месяц   |    Скачан:  0 раз
DL-List: Нет
Сидов:  3  [  0 KB/s  ]  
 
     
 
 

Гость ®

Пол:
Не указан

На рассвете
Год выпуска: 2018
Производство: Россия, ООО «Доминика», Golden Key Entertainment
Жанр: Мелодрама
Продолжительность: 00:48:00
Субтитры: Нет
Режиссёр: Алексей Мясников
В ролях: Анна Старшенбаум, Тимофей Каратаев, Вячеслав Крикунов, Александр Макогон, Игорь Филиппов, Мария Малиновская, Алексей Тихонов, Дарья Храмцова, Александр Хмельницкий, Максим Бобков, Маруся Пестунова, Андрей Гринев, Лина Весёлкина, Андрей Лёвин, Михаил Шамигулов, Виктор Власов, Анастасия Кильбург, Леонид Ардо, Альберт Бартош, Вера Александрова (II), Мария Букнис
Описание: В благополучной семье Виноградовых случается горе — глава семьи Роман погибает на охоте. А спустя некоторое время его дочь Елена узнает о любовной связи своей матери Ирины с партнером отца — Борисом. Устроив скандал своей матери, Лена не справляется с управлением автомобиля и попадает в аварию… Когда Лена приходит в себя, всем становится понятно, что из памяти девушки стерты несколько последних лет жизни. Она ничего не помнит ни про смерть отца, ни про предательство матери, вероятно, причастной к смерти главы семьи, а еще Лена забыла Сергея… за которого собиралась замуж.
Релиз группа
Реклама: Сторонней рекламы нет!
Все раздачи сериала На рассвете


Качество: WEBRip
Формат: AVI
Видео кодек: XviD
Аудио кодек: AC3
Видео: 720x400 (1.80:1), 25 fps, XviD build 73 ~1600 kbps avg, 0.222 bit/pixel
Аудио: 48 kHz, AC3 Dolby Digital, 2/0 (L,R) ch, ~192 kbps

Скриншоты

MediaInfo

General
Complete name : C:\00\6354\ На рассвете. 2019.WEB-DLRip. Files-x\01. На рассвете. 2019.WEB-DLRip. Files-x.avi
Format : AVI
Format/Info : Audio Video Interleave
File size : 1.20 GiB
Duration : 1h 35mn
Overall bit rate : 1 802 Kbps
Writing application : VirtualDubMod 1.5.10.3 | www.virtualdub-fr.org || (build 2550/release)
Writing library : VirtualDubMod build 2550/release
Video
ID : 0
Format : MPEG-4 Visual
Format profile : Advanced Simple@L5
Format settings, BVOP : 1
Format settings, QPel : No
Format settings, GMC : No warppoints
Format settings, Matrix : Custom
Codec ID : XVID
Codec ID/Hint : XviD
Duration : 1h 35mn
Bit rate : 1 600 Kbps
Width : 720 pixels
Height : 400 pixels
Display aspect ratio : 16:9
Frame rate : 25.000 fps
Color space : YUV
Chroma subsampling : 4:2:0
Bit depth : 8 bits
Scan type : Progressive
Compression mode : Lossy
Bits/(Pixel*Frame) : 0.222
Stream size : 1.06 GiB (89%)
Writing library : XviD 73
Audio
ID : 1
Format : AC-3
Format/Info : Audio Coding 3
Mode extension : CM (complete main)
Codec ID : 2000
Duration : 1h 35mn
Bit rate mode : Constant
Bit rate : 192 Kbps
Channel(s) : 2 channels
Channel positions : Front: L R
Sampling rate : 48.0 KHz
Bit depth : 16 bits
Compression mode : Lossy
Stream size : 131 MiB (11%)
Alignment : Split accross interleaves
Interleave, duration : 40 ms (1.00 video frame)
Interleave, preload duration : 500 ms

Внимание! Раздача ведётся путём добавления новых серий!

Внимание! Раздача ведётся путём добавления новых серий
Внимание! Раздача ведётся путём добавления новых серий; при каждом добавлении создётся новый торрент.
Чтобы начать докачку новой серии, пользователям необходимо сделать следующее:
1) остановить скачивание
2) удалить старый торрент у себя из клиента (старые серии удалять не надо)
3) скачать новый торрент и запустить его у себя в клиенте вместо старого, при этом указать клиенту путь в старую папку куда и должно происходить скачивание новых серий.
Ваш клиент при этом должен произвести хеширование (проверку) старой папки (если не производит сам - помогите ему сделать это), и будет докачивать только те серии которых у вас ещё нет. Старые серии при этом не удаляются, а продолжают раздаваться!
Eсли вы уже удалили старые серии, то предотвратить повторную закачку старых серий можно, отжав галочку в соответствовавших местах при запуске нового торрента.
[opentorrent.pro].t3527.torrent 
Торрент: Зарегистрирован [ 2019-06-09 17:16 ] · 44F7F8E87CF43F42CF7986645C3DE60A09F3E57A

Скачать .torrent

Скачать

12 KB

Статус: проверено
Скачан: 0 раз
Размер: 2,33 GB  ·  Тип торрента
terms.php
Показать сообщения:    

Текущее время: 05-Авг 02:25

Часовой пояс: UTC ± 0



Вы не можете начинать темы
Вы не можете отвечать на сообщения
Вы не можете редактировать свои сообщения
Вы не можете удалять свои сообщения
Вы не можете голосовать в опросах
Вы не можете прикреплять файлы к сообщениям
Вы можете скачивать файлы