- именно месье - послушайте! --> послушайте старина! --> у меня оченьмало времени --> ну что ж ну и вот --> вы уволены! " /> Король придурков / Le roi des cons (Клод Конфорте / Claude Confortès) [1981, Франция, Комедия, DVDRip] (Lisok) + Sub Rus : Найдётся всё!
Статистика раздачи
Размер:  698 MB   |    Зарегистрирован:  1 год 1 месяц   |    Скачан:  0 раз
DL-List: Нет

Полного источника не было: Никогда

 
     
 
 

serzh ®

Пол:
Не указан
Стаж:
1 год 4 месяца
Сообщений:
442

Король придурков / Le roi des cons
Страна: Франция
Жанр: Комедия
Год выпуска: 1981
Продолжительность: 01:34:00
Перевод: Субтитры Lisok
Субтитры: русские
Режиссер: Клод Конфорте / Claude Confortès
В ролях: Франсис Перрен, Мари-Кристин Декуар, Изабель Межья, Эвелин Бюйль, Фанни Коттансон, Патрик Фон, Софи Агасински
Описание: Жорж Лёруа - неисправимый романтик, меняющий работу с той же частотой, с какой покоряет женские сердца. Однажды он знакомится с Софи Лабранш и тут же влюбляется в нее. Однако его признания в любви по ошибке транслируются по всему офису, и Жорж превращается во всенародный секс-символ. Фамилия главного героя (Le Roi) - также отсылка к названию фильма.
Доп. информация: IMDB
Сэмпл: http://sendfile.su/1499026
Качество видео: DVDRip
Формат видео: AVI
Видео: XVID, 640x432, 3:2, 25 fps, 897 kb/s
Аудио: MP3, 48.0 kHz, 128 kb/s, стерео
Формат субтитров: softsub (SRT, ASS)

MediaInfo

General
Format : AVI
Format/Info : Audio Video Interleave
File size : 698 MiB
Duration : 1 h 34 min
Overall bit rate : 1 038 kb/s
Movie name : Le Roi Des Cons
Writing application : Lavf53.21.0
Original source form/Name : Le Roi Des Cons
Video #0
ID : 0
Format : MPEG-4 Visual
Format profile : Advanced Simple@L5
Format settings, BVOP : 2
Format settings, QPel : No
Format settings, GMC : No warppoints
Format settings, Matrix : Default (H.263)
Muxing mode : Packed bitstream
Codec ID : XVID
Codec ID/Hint : XviD
Duration : 1 h 34 min
Bit rate : 897 kb/s
Width : 640 pixels
Height : 432 pixels
Display aspect ratio : 3:2
Frame rate : 25.000 FPS
Color space : YUV
Chroma subsampling : 4:2:0
Bit depth : 8 bits
Scan type : Progressive
Compression mode : Lossy
Bits/(Pixel*Frame) : 0.130
Stream size : 603 MiB (86%)
Writing library : XviD 1.2.1 (UTC 2008-12-04)
Audio #1
ID : 1
Format : MPEG Audio
Format version : Version 1
Format profile : Layer 3
Mode : Joint stereo
Mode extension : MS Stereo
Codec ID : 55
Codec ID/Hint : MP3
Duration : 1 h 33 min
Bit rate mode : Constant
Bit rate : 128 kb/s
Channel(s) : 2 channels
Sampling rate : 48.0 kHz
Compression mode : Lossy
Stream size : 86.0 MiB (12%)
Alignment : Aligned on interleaves
Interleave, duration : 24 ms (0.60 video frame)

Скриншот c названием фильма

Скриншоты

Пример субтитров

54
00:07:04,130 --> 00:07:06,940
Да, минуту!
Простите, господин префект.
55
00:07:08,260 --> 00:07:11,530
Да, я... я рассчитываю
на вашу поддержку.
56
00:07:11,740 --> 00:07:14,240
Спасибо, господин префект...
О? Да? О...
57
00:07:14,330 --> 00:07:16,170
До свидания, господин префект,
спасибо.
58
00:07:24,020 --> 00:07:25,380
Войдите!
59
00:07:39,840 --> 00:07:40,810
Чего вам?
60
00:07:40,880 --> 00:07:43,970
Товарищи выбрали меня,
чтобы с вами поговорить.
61
00:07:47,570 --> 00:07:49,890
Если о повышении зарплаты,
то сейчас не время.
62
00:07:49,890 --> 00:07:53,040
Вы не хуже меня знаете,
что мы проходим через кризис,
63
00:07:53,040 --> 00:07:54,530
что у "Циклона" проблемы.
64
00:07:54,530 --> 00:07:56,780
- Именно, месье...
- Послушайте!
65
00:07:56,970 --> 00:07:58,860
Послушайте, старина!
66
00:07:59,290 --> 00:08:01,170
У меня очень
мало времени.
67
00:08:02,160 --> 00:08:04,060
Ну что ж... ну и вот...
68
00:08:04,360 --> 00:08:05,960
Вы уволены!
[opentorrent.pro].t3528.torrent 
Торрент: Зарегистрирован [ 2019-06-09 17:16 ] · 3DEACAC3C9D528A0C238117DE2FA81E7C8B42877

Скачать .torrent

Скачать

14 KB

Статус: проверено
Скачан: 0 раз
Размер: 698 MB  ·  Тип торрента
terms.php
Профиль [ЛС]
Показать сообщения:    

Текущее время: 07-Авг 21:41

Часовой пояс: UTC ± 0



Вы не можете начинать темы
Вы не можете отвечать на сообщения
Вы не можете редактировать свои сообщения
Вы не можете удалять свои сообщения
Вы не можете голосовать в опросах
Вы не можете прикреплять файлы к сообщениям
Вы можете скачивать файлы