Статистика раздачи
Размер:  748 MB   |    Зарегистрирован:  11 месяцев 21 день   |    Скачан:  0 раз
DL-List: Нет
Сидов:  4  [  0 KB/s  ]  
 
     
 
 

Гость ®

Пол:
Не указан

Дэдвуд / Deadwood- Страна: США
Студия: HBO Films
Жанр: вестерн
Год выпуска: 2019
Продолжительность: 01:50:07
Перевод: Профессиональный (многоголосый закадровый) (Amedia)
Субтитры: нет
Оригинальная аудиодорожка: нет
Режиссер: Даниэль Минахан / Daniel Minahan
В ролях: Тимоти Олифант, Иэн Макшейн, Молли Паркер, Паула Малкомсон, У. Эрл Браун, Дэйтон Калли, Ким Диккенс, Брэд Дуриф, Анна Ганн. Джон Хоукс
Описание: В 1889 году поселение Дэдвуд наконец получило статус города, но там по-прежнему царит атмосфера беззакония. Выдающийся телевестерн «Дэдвуд», закрытый после третьего сезона, возвращается в полнометражной версии, чтобы наконец довести историю до финала. По сюжету герои вестерна встречаются через десять лет после событий третьего сезона, чтобы отпраздновать признание родной Южной Дакоты официальным штатом. Новые времена диктуют свои правила, и в гонке за неизбежными изменениями возродится былое соперничество, а крепкие союзы дадут трещину.

Тип релиза: WEB-DLRip [Neon_project]
Контейнер: AVI
Видео: 640x320 (2.00:1), 23.976 fps, XviD build 50 ~812 kbps avg, 0.17 bit/pixel
Аудио: 48 kHz, MPEG Layer 3, 2 ch, ~128.00 kbps avg

MediaInfo

Общее
Полное имя : \Deadwood.The.Movie.2019.WEB-DLRip.avi
Формат : AVI
Формат/Информация : Audio Video Interleave
Размер файла : 748 Мбайт
Продолжительность : 1 ч. 50 м.
Общий поток : 950 Кбит/сек
Название фильма : Дэдвуд / Deadwood
Режиссёр : аниэль Минахан / Daniel Minahan
Жанр : вестерн
Программа кодирования : VirtualDubMod 1.5.10.3 | www.virtualdub-fr.org || (build 2550/release)
Формат оригинала/Имя : фильм
Примечание : Neon_project
Видео
Идентификатор : 0
Формат : MPEG-4 Visual
Профиль формата : Advanced Simple@L5
Настройки формата : BVOP1 / Custom Matrix
Параметр BVOP формата : 1
Параметр QPel формата : Нет
Параметр GMC формата : Без точки перехода
Параметр матрицы формата : Выборочная
Идентификатор кодека : XVID
Идентификатор кодека/Подсказка : XviD
Продолжительность : 1 ч. 50 м.
Битрейт : 812 Кбит/сек
Ширина : 640 пикселей
Высота : 320 пикселей
Соотношение сторон : 2,000
Частота кадров : 23,976 (24000/1001) кадра/сек
Цветовое пространство : YUV
Субдискретизация насыщенности : 4:2:0
Битовая глубина : 8 бит
Тип развёртки : Прогрессивная
Метод сжатия : С потерями
Бит/(Пиксели*Кадры) : 0.165
Размер потока : 640 Мбайт (86%)
Библиотека кодирования : XviD 1.2.1 (UTC 2008-12-04)
Аудио
Идентификатор : 1
Формат : MPEG Audio
Версия формата : Version 1
Профиль формата : Layer 3
Настройки формата : Joint stereo / MS Stereo
Идентификатор кодека : 55
Идентификатор кодека/Подсказка : MP3
Продолжительность : 1 ч. 50 м.
Вид битрейта : Постоянный
Битрейт : 128 Кбит/сек
Каналы : 2 канала
Частота : 48,0 КГц
Частота кадров : 41,667 кадра/сек (1152 SPF)
Метод сжатия : С потерями
Размер потока : 101 Мбайт (13%)
Выравнивание : Соединение по промежуткам
Продолжительность промежутка : 42 мс. (1,00 видеокадр)
Время предзагрузки промежутка : 504 мс.
Библиотека кодирования : LAME3.99r
Настройки программы : -m j -V 4 -q 0 -lowpass 17 -b 128

Скриншот c названием фильма

Скриншоты


]
[opentorrent.pro].t3530.torrent 
Торрент: Зарегистрирован [ 2019-06-09 17:16 ] · 35DF7638D5A8A2042F875EC34F94549E111BFFB5

Скачать .torrent

Скачать

15 KB

Статус: проверено
Скачан: 0 раз
Размер: 748 MB  ·  Тип торрента
terms.php
Показать сообщения:    

Текущее время: 31-Май 04:22

Часовой пояс: UTC ± 0



Вы не можете начинать темы
Вы не можете отвечать на сообщения
Вы не можете редактировать свои сообщения
Вы не можете удалять свои сообщения
Вы не можете голосовать в опросах
Вы не можете прикреплять файлы к сообщениям
Вы можете скачивать файлы