Статистика раздачи
Размер:  2,53 GB   |    Зарегистрирован:  11 месяцев 20 дней   |    Скачан:  0 раз
DL-List: Нет
Сидов:  163  [  0 KB/s  ]   Личеров:  10  [  0 KB/s  ]  
 
     
 
 

Гость ®

Пол:
Не указан

Батальон
Год выпуска: 2018
Производство: Россия, КИТ, IKa film
Жанр: Военный, боевик, история, драма
Продолжительность: 4 x ~ 00:47:00
Субтитры: Отсутствуют
Режиссёр: Алексей Быстрицкий
В ролях: Максим Щёголев, Александр Бухаров, Михаил Бабичев, Полина Ястребова, Пьер Бурель, Александр Замураев, Андрей Стоянов, Пётр Королёв (II), Илья Волков, Глеб Гервассиев, Антон Багмет, Виталий Кондрашов, Павел Юдин, Зепюр Брутян, Денис Доронин, Марк Шихов, Сергей Гурьев (II), Олег Метелев, Виталий Гумеров
Описание: Действие фильма развернётся в 1999 году, когда Югославия находилась на пике распада. Война, голод, разруха и мародёрство. Албанское население хочет навсегда избавить свою землю от сербов. Аэропорт города Приштина – важный стратегический объект, и если его займёт Армия освобождения Косово во главе с Брахимом, то местные албанцы устроят настоящий геноцид сербского народа. Командование России принимает решение захватить аэропорт первыми. Для того, чтобы удержать аэропорт до прихода батальона и не допустить передачу оружия и техники косовским боевикам, на объект отправляют группу спецназовцев ГРУ. Ситуация осложняется тем, что оружия нет, воздушное пространство закрыто, а до ближайшего российского батальона почти 10 часов ходьбы. Единственным, кто может помочь и добыть вооружение, остается разведчик Андрей, ранее внедрённый в армию Косово. Однако выполнить задание Андрею мешают цыгане, похитившие Венеру – дочь Брахима, в которую влюблен русский разведчик. Андрею необходимо принять сложное решение: между долгом перед Родиной и защитой чести любимой девушки необходимо выбрать что-то одно.
Автор релиза:
Реклама: Отсутствует
Сэмпл: http://multi-up.com/1233982
Качество: SATRip
Формат: AVI
Видео кодек: XviD
Аудио кодек: MP3
Видео: XviD, 720x304, ~ 1700 Кбит/с, 0.310 bit/pixel
Аудио: МР3, 2 ch, 192 Кбит/с

MI

Общее
Полное имя : D:\Батальон.XviD.2018.SATRip.7turza\01.Батальон.7turza.avi
Формат : AVI
Формат/Информация : Audio Video Interleave
Размер файла : 635 Мбайт
Продолжительность : 46 м. 44 с.
Общий поток : 1901 Кбит/сек
Программа кодирования : Lavf58.20.100
Библиотека кодирования : VirtualDub build 35576/release
Видео
Идентификатор : 0
Формат : MPEG-4 Visual
Профиль формата : Advanced Simple@L5
Настройки формата : BVOP1
Параметр BVOP формата : 1
Параметр QPel формата : Нет
Параметр GMC формата : Без точки перехода
Параметр матрицы формата : Default (H.263)
Идентификатор кодека : XVID
Идентификатор кодека/Подсказка : XviD
Продолжительность : 46 м. 44 с.
Битрейт : 1696 Кбит/сек
Ширина : 720 пикселей
Высота : 304 пикселя
Соотношение сторон : 2,40:1
Частота кадров : 25,000 кадров/сек
Цветовое пространство : YUV
Субдискретизация насыщенности : 4:2:0
Битовая глубина : 8 бит
Тип развёртки : Прогрессивная
Бит/(Пиксели*Кадры) : 0.310
Размер потока : 567 Мбайт (89%)
Библиотека кодирования : XviD 67
Аудио
Идентификатор : 1
Формат : MPEG Audio
Версия формата : Version 1
Профиль формата : Layer 3
Настройки формата : Joint stereo / MS Stereo
Идентификатор кодека : 55
Идентификатор кодека/Подсказка : MP3
Продолжительность : 46 м. 44 с.
Вид битрейта : Постоянный
Битрейт : 192 Кбит/сек
Каналы : 2 канала
Частота : 48,0 КГц
Размер потока : 64,2 Мбайт (10%)
Выравнивание : Соединение по промежуткам
Продолжительность промежутка : 24 мс. (0,60 видеокадр)
Время предзагрузки промежутка : 504 мс.

Скриншоты

Предыдущие и альтернативные раздачи
[opentorrent.pro].t3532.torrent 
Торрент: Зарегистрирован [ 2019-06-09 17:16 ] · 9D11483798392C0C41BF406EDA7C9B475B135ADB

Скачать .torrent

Скачать

13 KB

Статус: проверено
Скачан: 0 раз
Размер: 2,53 GB  ·  Тип торрента
terms.php
Показать сообщения:    

Текущее время: 30-Май 14:56

Часовой пояс: UTC ± 0



Вы не можете начинать темы
Вы не можете отвечать на сообщения
Вы не можете редактировать свои сообщения
Вы не можете удалять свои сообщения
Вы не можете голосовать в опросах
Вы не можете прикреплять файлы к сообщениям
Вы можете скачивать файлы