Статистика раздачи
Размер:  2,46 GB   |    Зарегистрирован:  11 месяцев 20 дней   |    Скачан:  0 раз
DL-List: Нет
Сидов:  14  [  0 KB/s  ]   Личеров:  1  [  0 KB/s  ]  
 
     
 
 

Гость ®

Пол:
Не указан

Батальон
Год выпуска: 2018
Производство: Боевик, военный фильм, драма, исторический фильм
Жанр: Россия, Киностудия КИТ по заказу телеканала НТВ
Продолжительность: 00:48:00
Субтитры: Нет
Режиссёр: Алексей Быстрицкий
В ролях: Максим Щёголев, Александр Бухаров, Михаил Бабичев, Полина Ястребова, Пьер Бурель, Александр Замураев, Андрей Стоянов, Пётр Королёв (II), Илья Волков, Глеб Гервассиев, Антон Багмет, Виталий Кондрашов, Павел Юдин, Зепюр Брутян
Описание: 1999 год: Югославия находится на пике распада, а албанское население навсегда хочет избавить свою землю от сербов. Аэропорт Приштина — важный стратегический объект, и если его займёт Армия освобождения Косово во главе с Брахимом, то местные албанцы устроят настоящий геноцид сербского народа. Чтобы не допустить передачу оружия косовским боевикам и не дать захватить аэропорт, на объект отправляют группу спецназовцев ГРУ. Ситуация осложняется тем, что оружия нет, воздушное пространство закрыто, а до ближайшего батальона почти 10 часов ходьбы. Помочь им может только ранее внедрённый в армию Косово разведчик Андрей. Однако выполнить поставленную задачу ему не удаётся: цыгане похищают его возлюбленную…
Релиз группа
Реклама: Сторонней рекламы нет!
Все раздачи сериала Батальон


Качество: WEBRip
Формат: AVI
Видео кодек: XviD
Аудио кодек: AC3
Видео: 720x304 (1.80:1), 25 fps, XviD build 73 ~1600 kbps avg, 0.292 bit/pixel
Аудио: 48 kHz, AC3 Dolby Digital, 2/0 (L,R) ch, ~192 kbps

Скриншоты

MediaInfo

General
Complete name : C:\00\6354\Батальон.2018.WEB-DLRip. Files-x\03. Батальон..2018.WEB-DLRip. Files-x.avi
Format : AVI
Format/Info : Audio Video Interleave
File size : 642 MiB
Duration : 49mn 49s
Overall bit rate : 1 802 Kbps
Writing application : VirtualDubMod 1.5.10.3 | www.virtualdub-fr.org || (build 2550/release)
Writing library : VirtualDubMod build 2550/release
Video
ID : 0
Format : MPEG-4 Visual
Format profile : Advanced Simple@L5
Format settings, BVOP : 1
Format settings, QPel : No
Format settings, GMC : No warppoints
Format settings, Matrix : Custom
Codec ID : XVID
Codec ID/Hint : XviD
Duration : 49mn 49s
Bit rate : 1 600 Kbps
Width : 720 pixels
Height : 304 pixels
Display aspect ratio : 2.35:1
Frame rate : 25.000 fps
Color space : YUV
Chroma subsampling : 4:2:0
Bit depth : 8 bits
Scan type : Progressive
Compression mode : Lossy
Bits/(Pixel*Frame) : 0.292
Stream size : 570 MiB (89%)
Writing library : XviD 73
Audio
ID : 1
Format : AC-3
Format/Info : Audio Coding 3
Mode extension : CM (complete main)
Codec ID : 2000
Duration : 49mn 49s
Bit rate mode : Constant
Bit rate : 192 Kbps
Channel(s) : 2 channels
Channel positions : Front: L R
Sampling rate : 48.0 KHz
Bit depth : 16 bits
Compression mode : Lossy
Stream size : 68.4 MiB (11%)
Alignment : Split accross interleaves
Interleave, duration : 40 ms (1.00 video frame)
Interleave, preload duration : 500 ms
[opentorrent.pro].t3552.torrent 
Торрент: Зарегистрирован [ 2019-06-10 15:39 ] · 3490ECCBFD1FBE422858DF1FD05D59FB361A7B7A

Скачать .torrent

Скачать

13 KB

Статус: проверено
Скачан: 0 раз
Размер: 2,46 GB  ·  Тип торрента
terms.php
Показать сообщения:    

Текущее время: 31-Май 03:58

Часовой пояс: UTC ± 0



Вы не можете начинать темы
Вы не можете отвечать на сообщения
Вы не можете редактировать свои сообщения
Вы не можете удалять свои сообщения
Вы не можете голосовать в опросах
Вы не можете прикреплять файлы к сообщениям
Вы можете скачивать файлы