Статистика раздачи
Размер:  13,12 GB   |    Зарегистрирован:  1 год 1 месяц   |    Скачан:  0 раз
DL-List: Нет
Сидов:  9  [  0 KB/s  ]   Личеров:  2  [  0 KB/s  ]  
 
     
 
 

Гость ®

Пол:
Не указан

КГБ в смокинге
Год выпуска: 2005
Производство: Россия / Рен-ТВ
Жанр: боевик
Продолжительность: ~00:48:00 серия
Субтитры: отсутствуют
Режиссёр: Олег Фомин
В ролях: Екатерина Волкова, Вилле Хаапасало, Олег Фомин, Михаил Ефремов, Юозас Будрайтис, Леонид Тимцуник, Михаил Горевой, Юрий Стосков, Станислав Коренев, Виктор Сергачев и др.
Описание: Москва, конец 1977 года. СССР во всей своей красе. Журналистка комсомольского издания Валентина Мальцева один только раз и то ради профессии назвалась человеком Андропова, как ее тут же вызвали к могущественному чекисту. Шеф КГБ лично вербует журналистку…
Реклама: Нет
Возраст: 12+ (зрителям, достигшим 12 лет)


Качество: DVDRip-AVC
Формат: MKV
Видео кодек: H.264
Аудио кодек: AC3
Видео: 990x576 (1.719), ~2200 kbps, 25 fps, 0.154 bit/pixel
Аудио: 48 kHz, AC3 Dolby Digital, 2/0 (L,R) ch, ~224.00 kbps - русский

MI

General
Unique ID : 230564321663758600127948650758142732372 (0xAD7512B7FD4D25D5B42EE6323E9CA854)
Complete name : KGB.v.smokinge.E01.mkv
Format : Matroska
Format version : Version 4
File size : 838 MiB
Duration : 48 min 18 s
Overall bit rate : 2 426 kb/s
Encoded date : UTC 2019-06-08 08:35:04
Writing application : mkvmerge v8.3.0 ('Over the Horizon') 32bit
Writing library : libebml v1.3.1 + libmatroska v1.4.2
Video
ID : 1
Format : AVC
Format/Info : Advanced Video Codec
Format profile : High@L4.1
Format settings : CABAC / 15 Ref Frames
Format settings, CABAC : Yes
Format settings, Reference : 15 frames
Codec ID : V_MPEG4/ISO/AVC
Duration : 48 min 18 s
Bit rate : 2 200 kb/s
Width : 990 pixels
Height : 576 pixels
Display aspect ratio : 1.719
Frame rate mode : Constant
Frame rate : 25.000 FPS
Color space : YUV
Chroma subsampling : 4:2:0
Bit depth : 8 bits
Scan type : Progressive
Bits/(Pixel*Frame) : 0.154
Stream size : 760 MiB (91%)
Writing library : x264 core 152 r2854 e9a5903
Encoding settings : cabac=1 / ref=15 / deblock=1:0:0 / analyse=0x3:0x133 / me=umh / subme=10 / psy=1 / psy_rd=1.00:0.00 / mixed_ref=1 / me_range=24 / chroma_me=1 / trellis=2 / 8x8dct=1 / cqm=0 / deadzone=21,11 / fast_pskip=0 / chroma_qp_offset=-2 / threads=6 / lookahead_threads=1 / sliced_threads=0 / nr=0 / decimate=1 / interlaced=0 / bluray_compat=0 / constrained_intra=0 / bframes=10 / b_pyramid=2 / b_adapt=2 / b_bias=0 / direct=3 / weightb=1 / open_gop=0 / weightp=2 / keyint=250 / keyint_min=25 / scenecut=40 / intra_refresh=0 / rc_lookahead=40 / rc=2pass / mbtree=1 / bitrate=2200 / ratetol=1.0 / qcomp=0.60 / qpmin=10 / qpmax=51 / qpstep=4 / cplxblur=20.0 / qblur=0.5 / ip_ratio=1.40 / aq=1:1.00
Default : Yes
Forced : No
Audio
ID : 2
Format : AC-3
Format/Info : Audio Coding 3
Commercial name : Dolby Digital
Codec ID : A_AC3
Duration : 48 min 17 s
Bit rate mode : Constant
Bit rate : 224 kb/s
Channel(s) : 2 channels
Channel layout : L R
Sampling rate : 48.0 kHz
Frame rate : 31.250 FPS (1536 SPF)
Bit depth : 16 bits
Compression mode : Lossy
Delay relative to video : 200 ms
Stream size : 77.4 MiB (9%)
Language : Russian
Service kind : Complete Main
Default : Yes
Forced : No
Menu
00:00:00.000 : en:Chapter 01
00:05:00.280 : en:Chapter 02
00:10:00.600 : en:Chapter 03
00:15:00.160 : en:Chapter 04
00:20:00.600 : en:Chapter 05
00:25:00.240 : en:Chapter 06
00:30:00.280 : en:Chapter 07
00:35:00.480 : en:Chapter 08
00:40:00.560 : en:Chapter 09
00:45:00.120 : en:Chapter 10

Скриншоты

Предыдущие и альтернативные раздачи
[opentorrent.pro].t3559.torrent 
Торрент: Зарегистрирован [ 2019-06-11 16:07 ] · D2F9BCC8E82D75A6AB78FB22279B548D5B86A617

Скачать .torrent

Скачать

34 KB

Статус: проверено
Скачан: 0 раз
Размер: 13,12 GB  ·  Тип торрента
terms.php
Показать сообщения:    

Текущее время: 07-Авг 21:39

Часовой пояс: UTC ± 0



Вы не можете начинать темы
Вы не можете отвечать на сообщения
Вы не можете редактировать свои сообщения
Вы не можете удалять свои сообщения
Вы не можете голосовать в опросах
Вы не можете прикреплять файлы к сообщениям
Вы можете скачивать файлы