Статистика раздачи
Размер:  1,47 GB   |    Зарегистрирован:  11 месяцев 23 дня   |    Скачан:  0 раз
DL-List: Нет

Полного источника не было: Никогда

 
     
 
 

солнышко ®

Пол:
Не указан
Стаж:
1 год 2 месяца
Сообщений:
723

Память крови
Mémoire de sang- Страна: Франция, Бельгия
Жанр: детектив, драма
Год выпуска: 2018
Продолжительность: 01:35:31Перевод: Субтитры (русский перевод Г.Мирзоевой, ECLAIR)
Субтитры: русские, английские, французские, немецкие, нидерландские, румынские, испанские
Оригинальная аудиодорожка: французский
Режиссер: Оливье Гиньяр / Olivier Guignard
В ролях: Изабель Желина / Isabelle Gélinas (Sandrine), Луиз Моно / Louise Monot (Louise), Бландин Беллавуа / Blandine Bellavoir (Camille Gallois), Самир Буатар / Samir Boitard (Antoine), Пьер Кассиньяр / Pierre Cassignard (Armand), Мартен Потар / Martin Pautard (Robin), Лу Ламбрехт / Lou Lambrecht (Amandine), Тони Леконт / Tomy Leconte (Victor), Готье Баттуе / Gauthier Battoué (Nico), Сельма Куши / Selma Kouchy (Nora)
Описание: Луиза, 32-летняя анестезиолог, ведет мирную счастливую жизнь с мужем, педиатром, и двумя детьми в городе Гавр на севере Франции. Этот идиллический мир внезапно рушится, когда полиция обнаруживает тело ее отчима, залитое в цементную плиту на строительной площадке гавани. Мишель Вассер, второй муж ее матери, который воспитывал ее с детства, неожиданно покинул семью 18 лет назад, и с тех пор о нем ничего не было слышно...
Доп. информация: TV5MONDE HD
Качество видео: HDTVRip-AVC
Формат видео: MKV
Видео: AVC (H.264), 1152х624 (1.85:1), 25 fps, ~2007 kbps avg, 0.112 bit/pixel
Аудио: AC3, 2 ch, 48 kHz, 192 kbps - французский
Формат субтитров: softsub (SRT)

Пример субтитров

1
00:01:12,738 --> 00:01:14,738
Что это?
2
00:01:25,017 --> 00:01:27,517
ПАМЯТЬ КРОВИ
3
00:01:33,614 --> 00:01:36,114
Расширитель.
4
00:01:43,382 --> 00:01:46,757
Ввожу 1 миллиграмм!
5
00:01:53,903 --> 00:01:57,278
Пульс восстановлен.
6
00:02:02,773 --> 00:02:04,503
Как твой ремонт?
7
00:02:04,503 --> 00:02:07,181
Три недели жить у матери!
Ты героиня.
8
00:02:07,181 --> 00:02:08,905
Я бы не смогла.
9
00:02:08,905 --> 00:02:12,658
Все нормально.
Мама очень рада видеть детей.
10
00:02:12,658 --> 00:02:14,783
Простите.
11
00:02:15,330 --> 00:02:18,338
Как она? Операция
длилась очень долго.
12
00:02:18,338 --> 00:02:22,103
Пересадка прошла удачно.
Почка начала функционировать.
13
00:02:22,103 --> 00:02:23,934
Ваша мама в реанимации.
14
00:02:23,934 --> 00:02:25,374
В реанимации?
15
00:02:25,374 --> 00:02:29,657
Все нормально. Ей нужно время,
чтобы прийти в себя.
16
00:02:29,657 --> 00:02:31,691
Можете пройти в ее палату.
17
00:02:31,691 --> 00:02:33,227
Простите, я...
18
00:02:33,227 --> 00:02:34,602
Да.
19
00:02:38,497 --> 00:02:40,099
Хорошо. Иду.
20
00:02:40,099 --> 00:02:44,858
Спасибо огромное.
Я вам позвоню.

MediaInfo

General
Unique ID : 274296615389122832719894772880206075864 (0xCE5B9B4509ECDCC2B7CA5B134B3217D8)
Complete name : [apreder]Memoire_de_sang(2018)HDTVRip.mkv
Format : Matroska
Format version : Version 2
File size : 1.47 GiB
Duration : 1 h 35 min
Overall bit rate : 2 201 kb/s
Movie name : Memoire de sang
Released date : 2018-09-22
Encoded date : UTC 2019-06-10 09:41:17
Writing application : mkvmerge v34.0.0 ('Sight and Seen') 64-bit
Writing library : libebml v1.3.7 + libmatroska v1.5.0
Cover : Yes
Attachments : cover.jpg / small_cover.jpg
ACTOR : Isabelle Gelinas, Louise Monot, Blandine Bellavoir
DIRECTOR : Olivier Guignard
GENRE : Crime, Drama, Mystery
IMDB : tt8126590
KEYWORDS : rutracker.org
LAW_RATING : 16+
Video
ID : 1
Format : AVC
Format/Info : Advanced Video Codec
Format profile : High@L4.1
Format settings : CABAC / 11 Ref Frames
Format settings, CABAC : Yes
Format settings, Reference frames : 11 frames
Codec ID : V_MPEG4/ISO/AVC
Duration : 1 h 35 min
Bit rate : 2 007 kb/s
Width : 1 152 pixels
Height : 624 pixels
Display aspect ratio : 1.85:1
Frame rate mode : Constant
Frame rate : 25.000 FPS
Color space : YUV
Chroma subsampling : 4:2:0
Bit depth : 8 bits
Scan type : Progressive
Bits/(Pixel*Frame) : 0.112
Stream size : 1.31 GiB (89%)
Writing library : x264 core 157 r2969 d4099dd
Encoding settings : cabac=1 / ref=11 / deblock=1:-1:-1 / analyse=0x3:0x133 / me=umh / subme=10 / psy=1 / psy_rd=1.00:0.15 / mixed_ref=1 / me_range=24 / chroma_me=1 / trellis=2 / 8x8dct=1 / cqm=0 / deadzone=21,11 / fast_pskip=1 / chroma_qp_offset=-3 / threads=18 / lookahead_threads=3 / sliced_threads=0 / nr=0 / decimate=1 / interlaced=0 / bluray_compat=0 / constrained_intra=0 / bframes=8 / b_pyramid=2 / b_adapt=2 / b_bias=0 / direct=3 / weightb=1 / open_gop=0 / weightp=2 / keyint=250 / keyint_min=25 / scenecut=40 / intra_refresh=0 / rc_lookahead=60 / rc=2pass / mbtree=1 / bitrate=2007 / ratetol=1.0 / qcomp=0.60 / qpmin=0 / qpmax=69 / qpstep=4 / cplxblur=20.0 / qblur=0.5 / vbv_maxrate=62500 / vbv_bufsize=78125 / nal_hrd=none / filler=0 / ip_ratio=1.40 / aq=1:1.00
Default : Yes
Forced : No
Audio
ID : 2
Format : AC-3
Format/Info : Audio Coding 3
Commercial name : Dolby Digital
Codec ID : A_AC3
Duration : 1 h 35 min
Bit rate mode : Constant
Bit rate : 192 kb/s
Channel(s) : 2 channels
Channel layout : L R
Sampling rate : 48.0 kHz
Frame rate : 31.250 FPS (1536 SPF)
Bit depth : 16 bits
Compression mode : Lossy
Stream size : 131 MiB (9%)
Language : French
Service kind : Complete Main
Default : Yes
Forced : No
Text #1
ID : 3
Format : UTF-8
Codec ID : S_TEXT/UTF8
Codec ID/Info : UTF-8 Plain Text
Language : Russian
Default : No
Forced : No
Text #2
ID : 4
Format : UTF-8
Codec ID : S_TEXT/UTF8
Codec ID/Info : UTF-8 Plain Text
Language : English
Default : No
Forced : No
Text #3
ID : 5
Format : UTF-8
Codec ID : S_TEXT/UTF8
Codec ID/Info : UTF-8 Plain Text
Language : French
Default : No
Forced : No
Text #4
ID : 6
Format : UTF-8
Codec ID : S_TEXT/UTF8
Codec ID/Info : UTF-8 Plain Text
Language : German
Default : No
Forced : No
Text #5
ID : 7
Format : UTF-8
Codec ID : S_TEXT/UTF8
Codec ID/Info : UTF-8 Plain Text
Language : Dutch
Default : No
Forced : No
Text #6
ID : 8
Format : UTF-8
Codec ID : S_TEXT/UTF8
Codec ID/Info : UTF-8 Plain Text
Language : rom
Default : No
Forced : No
Text #7
ID : 9
Format : UTF-8
Codec ID : S_TEXT/UTF8
Codec ID/Info : UTF-8 Plain Text
Language : Spanish
Default : No
Forced : No

Скриншот c названием фильма

Скриншоты


Резервные скриншоты


- [4'613]
[opentorrent.pro].t3562.torrent 
Торрент: Зарегистрирован [ 2019-06-11 16:07 ] · E116DF25F78258A34965DDD1492673659259206C

Скачать .torrent

Скачать

15 KB

Статус: проверено
Скачан: 0 раз
Размер: 1,47 GB  ·  Тип торрента
terms.php
Профиль [ЛС]
Показать сообщения:    

Текущее время: 04-Июн 21:07

Часовой пояс: UTC ± 0



Вы не можете начинать темы
Вы не можете отвечать на сообщения
Вы не можете редактировать свои сообщения
Вы не можете удалять свои сообщения
Вы не можете голосовать в опросах
Вы не можете прикреплять файлы к сообщениям
Вы можете скачивать файлы