Статистика раздачи
Размер:  3,71 GB   |    Зарегистрирован:  1 год 1 месяц   |    Скачан:  0 раз
DL-List: Нет

Полного источника не было: Никогда

 
     
 
 

serzh ®

Пол:
Не указан
Стаж:
1 год 4 месяца
Сообщений:
442

Двадцать один час в Мюнхене / 21 Hours at Munich
Страна: США
Жанр: триллер, драма, история
Год выпуска: 1976
Продолжительность: 01:40:44
Перевод: Профессиональный (двухголосый закадровый) НТВ+
Субтитры: английские
Оригинальная аудиодорожка: английский
Режиссер: Уильям А. Грэм / William A. Graham
В ролях: Уильям Холден, Ширли Найт, Франко Неро, Энтони Куэйл, Ричард Бейсхарт, Ноэл Уиллмен, Георг Маришка, Else Quecke, Михаэль Деген, Djamchid «Jim» Soheili
Описание: Это первый фильм о трагических событиях Мюнхенской олимпиады 1972 года, когда группа арабских террористов из организации "Черный сентябрь" взяла в заложники 11 израильских спортсменов. В фильме досконально воссоздны события тех дней. Все съёмки проходили на месте реальных событий.
Доп. информация: Исходный ДВД https://cybertorrent.ru/viewtopic.php?t=4543532 (спасибо rjhlb777). Сохранены главы, как на ДВД.
Дорожка с переводом записана мной по DVB-C в июне 2019 года с телеканала "Матч-ТВ".
Фильм озвучен телекомпанией НТВ+. Текст читали Светлана Старикова и Александр Котов.
Сэмпл: https://yadi.sk/i/NxpitgOJhydQCA
Качество видео: DVDRemux
Формат видео: MKV
Видео: MPEG-2 Video, 853x480@720x480 [16:9], 4880 kbps, 29,970 fps
Аудио: AC3, 2.0 ch. mono, 48 kHz, 192 kbps - НТВ+
Аудио 2: AC3, 2.0 ch. mono, 48 kHz, 192 kbps - english
Формат субтитров: softsub (SRT)

MediaInfo

Общее
Уникальный идентификатор : 233290941028021799125929012478783517225 (0xAF82336EB52753DFED835950CBFFF229)
Полное имя : D:\Torrents\21 Hours at Munich [1976 DVDRemux].mkv
Формат : Matroska
Версия формата : Version 4
Размер файла : 3,71 Гбайт
Продолжительность : 1 ч. 40 м.
Режим общего битрейта : Переменный
Общий поток : 5272 Кбит/сек
Дата кодирования : UTC 2019-06-10 19:21:43
Программа кодирования : mkvmerge v19.0.0 ('Brave Captain') 32-bit
Библиотека кодирования : libebml v1.3.5 + libmatroska v1.4.8
Видео
Идентификатор : 1
Формат : MPEG Video
Версия формата : Version 2
Профиль формата : Main@Main
Настройки формата : CustomMatrix / BVOP
Параметр BVOP формата : Да
Параметр матрицы формата : Выборочная
Параметр GOP формата : M=3, N=15
Структура изображения : Frame
Идентификатор кодека : V_MPEG2
Идентификатор кодека/Информация : MPEG 1 or 2 Video
Продолжительность : 1 ч. 40 м.
Вид битрейта : Переменный
Битрейт : 4882 Кбит/сек
Максимальный битрейт : 9802 Кбит/сек
Ширина : 720 пикселей
Высота : 480 пикселей
Соотношение сторон : 16:9
Режим частоты кадров : Переменный
Частота кадров : 29,970 (30000/1001) кадров/сек
Стандарт вещания : NTSC
Цветовое пространство : YUV
Субдискретизация насыщенности : 4:2:0
Битовая глубина : 8 бит
Тип развёртки : Чересстрочная
Порядок развёртки : Верхнее поле первое
Метод сжатия : С потерями
Бит/(Пиксели*Кадры) : 0.471
Размер потока : 3,44 Гбайт (93%)
Default : Да
Forced : Нет
Аудио #1
Идентификатор : 2
Формат : AC-3
Формат/Информация : Audio Coding 3
Коммерческое название : Dolby Digital
Идентификатор кодека : A_AC3
Продолжительность : 1 ч. 40 м.
Вид битрейта : Постоянный
Битрейт : 192 Кбит/сек
Каналы : 2 канала
ChannelLayout : L R
Частота : 48,0 КГц
Частота кадров : 31,250 кадров/сек (1536 SPF)
Битовая глубина : 16 бит
Метод сжатия : С потерями
Размер потока : 138 Мбайт (4%)
Заголовок : DVO NTV+
Язык : Russian
ServiceKind/String : Complete Main
Default : Да
Forced : Нет
Аудио #2
Идентификатор : 3
Формат : AC-3
Формат/Информация : Audio Coding 3
Коммерческое название : Dolby Digital
Идентификатор кодека : A_AC3
Продолжительность : 1 ч. 40 м.
Вид битрейта : Постоянный
Битрейт : 192 Кбит/сек
Каналы : 2 канала
ChannelLayout : L R
Частота : 48,0 КГц
Частота кадров : 31,250 кадров/сек (1536 SPF)
Битовая глубина : 16 бит
Метод сжатия : С потерями
Размер потока : 138 Мбайт (4%)
Язык : English
ServiceKind/String : Complete Main
Default : Нет
Forced : Нет
Текст
Идентификатор : 4
Формат : UTF-8
Идентификатор кодека : S_TEXT/UTF8
Идентификатор кодека/Информация : UTF-8 Plain Text
Продолжительность : 1 ч. 37 м.
Битрейт : 44 бит/сек
ElementCount : 801
Размер потока : 31,4 Кбайт (0%)
Язык : English
Default : Нет
Forced : Нет
Меню
00:00:00.000 : :01
00:02:44.450 : :02
00:19:34.150 : :03
00:26:59.550 : :04
00:35:50.310 : :05
00:43:23.660 : :06
00:53:55.000 : :07
01:03:39.000 : :08
01:11:06.900 : :09
01:18:27.500 : :10
01:26:21.000 : :11
01:37:39.330 : :12

Скриншот c названием фильма

Скриншоты

[opentorrent.pro].t3580.torrent 
Торрент: Зарегистрирован [ 2019-06-11 16:07 ] · BE4C580BA84D1D05F692180594F74DE2E90300F6

Скачать .torrent

Скачать

19 KB

Статус: проверено
Скачан: 0 раз
Размер: 3,71 GB  ·  Тип торрента
terms.php
Профиль [ЛС]
Показать сообщения:    

Текущее время: 13-Июл 12:20

Часовой пояс: UTC ± 0



Вы не можете начинать темы
Вы не можете отвечать на сообщения
Вы не можете редактировать свои сообщения
Вы не можете удалять свои сообщения
Вы не можете голосовать в опросах
Вы не можете прикреплять файлы к сообщениям
Вы можете скачивать файлы