Статистика раздачи
Размер:  3,93 GB   |    Зарегистрирован:  11 месяцев 14 дней   |    Скачан:  0 раз
DL-List: Нет

Полного источника не было: Никогда

 
     
 
 

serzh ®

Пол:
Не указан
Стаж:
1 год 2 месяца
Сообщений:
442

Денежная яма | Деньги на ветер / Ловушка для денег | Как в бездонную бочку | Прорва
The Money Pit
«For everyone who's ever been deeply in Love or deeply in debt»- Страна: США
Студия: Universal Pictures
Жанр: комедия
Год выпуска: 1986
Продолжительность: 01:30:54
Перевод: Профессиональный (двухголосый закадровый) - Селена Интернешнл по заказу ОРТ (Всеволод Кузнецов и Наталья Казначеева)
Перевод: Профессиональный (двухголосый закадровый) - НТВ+ (Александр Гаврилин и Наталья Казначеева) Отдельно
Перевод: Авторский (одноголосый закадровый) - Юрий Живов
Перевод: Авторский (одноголосый закадровый) - Андрей Гаврилов Отдельно
Перевод: Авторский (одноголосый закадровый) - Василий Горчаков Отдельно
Субтитры: русские, английские, испанские
Оригинальная аудиодорожка: английский
Режиссер: Ричард Бенджамин / Richard Benjamin
В ролях:
Том Хэнкс | Tom Hanks
Шелли Лонг | Shelley Long
Александр Годунов, Морин Стейплтон, Джо Мантенья, Филип Боско, Джош Мостел, Яков Смирнофф, Кармине Кариди, Брайан Бэкер-Описание:После того, как Уолтер и Анна были вынуждены съехать из квартиры в центре Нью-Йорка, они решили купить собственный дом! Но где взять такие деньги? А тут, как раз кстати, один знакомый предложил вроде бы чудный дом по чудесной цене — одно из тех предложений, от которых, как правило, не отказываются.
И наши ничего не подозревающие герои решились на покупку. Но если бы они только знали, какой дом им достался! Их ждал дом «с сюрпризом» — жилище, которое разваливалось прямо на глазах, в котором не хотело работать решительным образом ничего! Но неунывающий Уолтер решает заняться ремонтом нового приобретения. Начинается битва с трухлявым особняком, битва не на жизнь, а на смерть!
Кто же победит: новые горе-хозяева или дом-катастрофа?
-Сэмпл

IMDb: 6.30 (45 150)
Тип релиза: BDRip-AVC BDRemux 1080p
Контейнер: MKV
Видео: AVC 4433 kb/s kb/s 944 x 512 (1.844) 23.976 fps
Audio #1: Russian, 48.0 KHz, AC3, 2 ch, 192 kbps - DVO (ОРТ)
Audio #2: Russian, AC-3 448 kb/s 6 channels, 48.0 kHz - AVO (Юрий Живов)
Audio #3: English AC-3 448 kb/s 6 channels, 48.0 kHz
========Отдельно=======
Audio #4: Russian, 48.0 KHz, AC3, 2 ch, 192 kbps - DVO (НТВ+)
Audio #5: Russian, 48.0 KHz, AC3, 2 ch, 192 kbps - AVO (Андрей Гаврилов)
Audio #6: Russian, 48.0 KHz, AC3, 2 ch, 192 kbps - AVO (Василий Горчаков)
Формат субтитров: softsub (SRT)

MediaInfo | Log

Log

x264 [info]: frame I:854 Avg QP:19.58 size: 73113
x264 [info]: frame P:21121 Avg QP:20.70 size: 40476
x264 [info]: frame B:108799 Avg QP:22.50 size: 19900
x264 [info]: consecutive B-frames: 1.0% 0.7% 2.5% 11.1% 12.4% 29.1% 9.4% 4.6% 5.5% 7.2% 5.2% 2.7% 3.4% 3.5% 1.8%
x264 [info]: mb I I16..4: 2.1% 88.1% 9.8%
x264 [info]: mb P I16..4: 0.1% 26.3% 1.0% P16..4: 23.5% 28.5% 15.6% 1.6% 0.1% skip: 3.3%
x264 [info]: mb B I16..4: 0.0% 4.1% 0.1% B16..8: 38.4% 23.1% 7.6% direct: 8.9% skip:17.7% L0:50.5% L1:37.8% BI:11.7%
x264 [info]: 8x8 transform intra:96.0% inter:57.0%
x264 [info]: direct mvs spatial:100.0% temporal:0.0%
x264 [info]: coded y,uvDC,uvAC intra: 98.9% 79.2% 44.6% inter: 53.6% 33.6% 0.9%
x264 [info]: i16 v,h,dc,p: 62% 16% 11% 11%
x264 [info]: i8 v,h,dc,ddl,ddr,vr,hd,vl,hu: 9% 6% 16% 10% 13% 12% 11% 11% 11%
x264 [info]: i4 v,h,dc,ddl,ddr,vr,hd,vl,hu: 9% 6% 8% 8% 16% 16% 14% 12% 11%
x264 [info]: i8c dc,h,v,p: 37% 27% 21% 15%
x264 [info]: Weighted P-Frames: Y:13.1% UV:8.2%
x264 [info]: ref P L0: 33.8% 11.2% 18.4% 7.9% 7.4% 5.1% 5.3% 2.8% 2.9% 2.3% 2.5% 0.3% 0.0%
x264 [info]: ref B L0: 52.1% 15.4% 10.2% 6.0% 4.8% 4.1% 3.5% 2.3% 1.4% 0.4%
x264 [info]: ref B L1: 89.0% 11.0%
x264 [info]: kb/s:4521.06
x264 [total]: encoded 130774 frames, 11.66 fps, 4433.06 kb/s
Format : Matroska
Format version : Version 4
File size : 3.56 GiB
Duration : 1 h 30 min
Overall bit rate : 5 612 kb/s
Encoded date : UTC 2019-06-11 09:47:51
Writing application : mkvmerge v8.2.0 ('World of Adventure') 64bit
Writing library : libebml v1.3.1 + libmatroska v1.4.2
Video
ID : 1
Format : AVC
Format/Info : Advanced Video Codec
Format profile : High@L4.1
Format settings : CABAC / 11 Ref Frames
Format settings, CABAC : Yes
Format settings, Reference frames : 11 frames
Codec ID : V_MPEG4/ISO/AVC
Duration : 1 h 30 min
Bit rate : 4 433 kb/s
Width : 944 pixels
Height : 512 pixels
Display aspect ratio : 1.85:1
Frame rate mode : Constant
Frame rate : 23.976 (24000/1001) FPS
Color space : YUV
Chroma subsampling : 4:2:0
Bit depth : 8 bits
Scan type : Progressive
Bits/(Pixel*Frame) : 0.390
Stream size : 2.87 GiB (81%)
Title : The Money Pit (1986) [rutracker.org]
Writing library : x264 core 157 r2969 d4099dd
Encoding settings : cabac=1 / ref=11 / deblock=1:-3:-2 / analyse=0x3:0x133 / me=umh / subme=11 / psy=1 / psy_rd=1.00:0.05 / mixed_ref=1 / me_range=48 / chroma_me=1 / trellis=2 / 8x8dct=1 / cqm=0 / deadzone=21,11 / fast_pskip=0 / chroma_qp_offset=-3 / threads=12 / lookahead_threads=3 / sliced_threads=0 / nr=0 / decimate=1 / interlaced=0 / bluray_compat=0 / constrained_intra=0 / bframes=14 / b_pyramid=2 / b_adapt=2 / b_bias=0 / direct=3 / weightb=1 / open_gop=0 / weightp=2 / keyint=250 / keyint_min=23 / scenecut=40 / intra_refresh=0 / rc_lookahead=60 / rc=crf / mbtree=0 / crf=19.1 / qcomp=0.60 / qpmin=0 / qpmax=69 / qpstep=4 / vbv_maxrate=50000 / vbv_bufsize=62500 / crf_max=0.0 / nal_hrd=none / filler=0 / ip_ratio=1.40 / pb_ratio=1.30 / aq=3:0.90
Language : English
Default : Yes
Forced : No
Audio #1
ID : 2
Format : AC-3
Format/Info : Audio Coding 3
Commercial name : Dolby Digital
Codec ID : A_AC3
Duration : 1 h 30 min
Bit rate mode : Constant
Bit rate : 192 kb/s
Channel(s) : 2 channels
Channel layout : L R
Sampling rate : 48.0 kHz
Frame rate : 31.250 FPS (1536 SPF)
Bit depth : 16 bits
Compression mode : Lossy
Stream size : 125 MiB (3%)
Title : DVO (ОРТ)
Language : Russian
Service kind : Complete Main
Default : Yes
Forced : No
Audio #2
ID : 3
Format : AC-3
Format/Info : Audio Coding 3
Commercial name : Dolby Digital
Codec ID : A_AC3
Duration : 1 h 30 min
Bit rate mode : Constant
Bit rate : 448 kb/s
Channel(s) : 6 channels
Channel layout : L R C LFE Ls Rs
Sampling rate : 48.0 kHz
Frame rate : 31.250 FPS (1536 SPF)
Bit depth : 16 bits
Compression mode : Lossy
Stream size : 291 MiB (8%)
Title : AVO (Юрий Живов)
Language : Russian
Service kind : Complete Main
Default : No
Forced : No
Audio #3
ID : 4
Format : AC-3
Format/Info : Audio Coding 3
Commercial name : Dolby Digital
Codec ID : A_AC3
Duration : 1 h 30 min
Bit rate mode : Constant
Bit rate : 448 kb/s
Channel(s) : 6 channels
Channel layout : L R C LFE Ls Rs
Sampling rate : 48.0 kHz
Frame rate : 31.250 FPS (1536 SPF)
Bit depth : 16 bits
Compression mode : Lossy
Stream size : 291 MiB (8%)
Title : Original
Language : English
Service kind : Complete Main
Default : No
Forced : No
Text #1
ID : 5
Format : UTF-8
Codec ID : S_TEXT/UTF8
Codec ID/Info : UTF-8 Plain Text
Duration : 1 h 26 min
Bit rate : 110 b/s
Count of elements : 1156
Stream size : 69.6 KiB (0%)
Title : Russian
Language : Russian
Default : No
Forced : No
Text #2
ID : 6
Format : UTF-8
Codec ID : S_TEXT/UTF8
Codec ID/Info : UTF-8 Plain Text
Duration : 1 h 26 min
Bit rate : 69 b/s
Count of elements : 1120
Stream size : 43.8 KiB (0%)
Title : English
Language : English
Default : No
Forced : No
Text #3
ID : 7
Format : UTF-8
Codec ID : S_TEXT/UTF8
Codec ID/Info : UTF-8 Plain Text
Duration : 1 h 26 min
Bit rate : 67 b/s
Count of elements : 1129
Stream size : 42.5 KiB (0%)
Title : Spanish
Language : Spanish
Default : No
Forced : No
Menu
00:00:00.000 : :Chapter 01
00:03:21.075 : :Chapter 02
00:06:47.365 : :Chapter 03
00:14:37.459 : :Chapter 04
00:20:19.092 : :Chapter 05
00:28:02.180 : :Chapter 06
00:34:12.967 : :Chapter 07
00:41:20.394 : :Chapter 08
00:45:50.831 : :Chapter 09
00:50:51.757 : :Chapter 10
00:56:39.479 : :Chapter 11
01:03:26.719 : :Chapter 12
01:07:30.713 : :Chapter 13
01:13:54.263 : :Chapter 14
01:21:30.594 : :Chapter 15
01:26:35.940 : :Chapter 16[/pre]
[opentorrent.pro].t3590.torrent 
Торрент: Зарегистрирован [ 2019-06-12 16:31 ] · FA33B8B611DBE9CF10B49CA9C40486433F30DEF6

Скачать .torrent

Скачать

20 KB

Статус: проверено
Скачан: 0 раз
Размер: 3,93 GB  ·  Тип торрента
terms.php
Профиль [ЛС]
Показать сообщения:    

Текущее время: 27-Май 00:22

Часовой пояс: UTC ± 0



Вы не можете начинать темы
Вы не можете отвечать на сообщения
Вы не можете редактировать свои сообщения
Вы не можете удалять свои сообщения
Вы не можете голосовать в опросах
Вы не можете прикреплять файлы к сообщениям
Вы можете скачивать файлы