Статистика раздачи
Размер:  1,47 GB   |    Зарегистрирован:  11 месяцев 17 дней   |    Скачан:  0 раз
DL-List: Нет

Полного источника не было: Никогда

 
     
 
 

солнышко ®

Пол:
Не указан
Стаж:
1 год 2 месяца
Сообщений:
723

Горько в Мексике / Hasta que la boda nos separe
Страна: Мексика
Жанр: Комедия
Год выпуска: 2018
Продолжительность: 01:27:11
Перевод: Профессиональный (многоголосый закадровый)
Субтитры: нет
Оригинальная аудиодорожка: нет
Режиссер: Сантьяго Лимон / Santiago Limon
В ролях: Диана Бовио, Густаво Эгельхаф, Гектор Хольтен, Клодетта Маилье, Алекс Марин и Колл, Роберто Паласуэлос, Адаль Рамонес, Алехандра Родригес, Андрес Тальявини
Описание: Даниэль и Мария долгое время планировали свадьбу своей мечты. Чтобы все вышло так, как они задумали, они обращаются в специальное агенство, которое берет на себя ответственность за организацию торжества.
Доп. информация: IMDB
Исходник: https://cybertorrent.ru/viewtopic.php?t=5685482
Сэмпл: http://multi-up.com/1234420
Качество видео: HDTVRip
Формат видео: AVI
Видео: 720x400 (1.80:1), 25.000 fps, XviD build 73 ~ 2204 kbps avg, 0.31 bit/pixel
Аудио: 48 kHz, AC3 Dolby Digital, 2/0 (L,R) ch, ~ 192 kbps

MediaInfo

Общее
Полное имя : D:\Фильмы\Hasta que la boda nos separe.2018.avi
Формат : AVI
Формат/Информация : Audio Video Interleave
Размер файла : 1,47 Гбайт
Продолжительность : 1 ч. 27 м.
Общий поток : 2406 Кбит/сек
Программа кодирования : VirtualDubMod 1.5.10.3 | www.virtualdub-fr.org || (build 2550/release)
Библиотека кодирования : VirtualDubMod build 2550/release
Видео
Идентификатор : 0
Формат : MPEG-4 Visual
Профиль формата : Advanced Simple@L5
Настройки формата : BVOP1
Параметр BVOP формата : 1
Параметр QPel формата : Нет
Параметр GMC формата : Без точки перехода
Параметр матрицы формата : Default (MPEG)
Идентификатор кодека : XVID
Идентификатор кодека/Подсказка : XviD
Продолжительность : 1 ч. 27 м.
Битрейт : 2204 Кбит/сек
Ширина : 720 пикселей
Высота : 400 пикселей
Соотношение сторон : 16:9
Частота кадров : 25,000 кадров/сек
Цветовое пространство : YUV
Субдискретизация насыщенности : 4:2:0
Битовая глубина : 8 бит
Тип развёртки : Прогрессивная
Метод сжатия : С потерями
Бит/(Пиксели*Кадры) : 0.306
Размер потока : 1,34 Гбайт (92%)
Библиотека кодирования : XviD 73
Аудио
Идентификатор : 1
Формат : AC-3
Формат/Информация : Audio Coding 3
Коммерческое название : Dolby Digital
Идентификатор кодека : 2000
Продолжительность : 1 ч. 27 м.
Вид битрейта : Постоянный
Битрейт : 192 Кбит/сек
Каналы : 2 канала
Channel layout : L R
Частота : 48,0 КГц
Частота кадров : 31,250 кадров/сек (1536 SPF)
Битовая глубина : 16 бит
Метод сжатия : С потерями
Размер потока : 120 Мбайт (8%)
Выравнивание : Разделение по промежуткам
Продолжительность промежутка : 40 мс. (1,00 видеокадр)
Время предзагрузки промежутка : 500 мс.
ServiceKind/String : Complete Main

Скриншот c названием фильма

Скриншоты



[opentorrent.pro].t3616.torrent 
Торрент: Зарегистрирован [ 2019-06-13 17:05 ] · 30C7D32CCA8CE936EAE0D332C26ABBF0E0C3C918

Скачать .torrent

Скачать

15 KB

Статус: проверено
Скачан: 0 раз
Размер: 1,47 GB  ·  Тип торрента
terms.php
Профиль [ЛС]
Показать сообщения:    

Текущее время: 31-Май 10:22

Часовой пояс: UTC ± 0



Вы не можете начинать темы
Вы не можете отвечать на сообщения
Вы не можете редактировать свои сообщения
Вы не можете удалять свои сообщения
Вы не можете голосовать в опросах
Вы не можете прикреплять файлы к сообщениям
Вы можете скачивать файлы