Статистика раздачи
Размер:  1,21 GB   |    Зарегистрирован:  11 месяцев 19 дней   |    Скачан:  0 раз
DL-List: Нет
Сидов:  5  [  0 KB/s  ]  
 
     
 
 

Гость ®

Пол:
Не указан

В клетке
- Год выпуска: 2019
Производство: «Киностудия КИТ» совместно с продюсерским центром «TeamFilm»
Жанр: Драма, криминал, спорт
Продолжительность: 00:50:00
Субтитры: нет-Режиссёр: Артём Аксененко-В ролях: Павел Прилучный, Владимир Епифанцев, Артур Ваха, Агата Муцениеце, Екатерина Маликова, Наталья Парашкина, Даниил Воробьёв, Лаура Кеосаян, Алексей Ильин-Описание: В Калининград одновременно возвращаются отец и сын Евдокимовы: Сергей, по прозвищу Волчок вышел после семи лет тюрьмы по 228 статье; его отец, Алексей Евдокимов, сбежал в родной город от проблем в Москве. Сергей, вернувшись домой, не понимает, как жить дальше - он обнаруживает что мать окончательно спилась, а бывшая любовь Ольга его уже и не ждала. Кажется, только младший брат Женя счастлив видеть Волчка. А еще Дилер - бывший одноклассник, который за те несколько лет, что Сергей провел в колонии, поднялся от простого барыги до мафиози средней руки. С момента встречи отца и сына начнётся история о преодолении семейных травм, боли и зависимости. Им предстоит выбирать между долгом и любовью, между жизнью и смертью.- - -Качество: WEBRip
Формат: AVI
Видео кодек: XviD
Аудио кодек: AC3
Видео: 720x272, 23.976 fps, XviD, 1479 Kbps
Аудио: AC3, 48.0 KHz, 2 ch, 192 kbps-Реклама: Нет-Предыдущие и альтернативные раздачи-

MI

General
Complete name :Downloads\V.kletke.2019.WEB-DLRip.25Kuzmich\V.kletke.E01.WEB-DLRip.25Kuzmich.avi
Format : AVI
Format/Info : Audio Video Interleave
File size : 600 MiB
Duration : 49mn 56s
Overall bit rate : 1 681 Kbps
Writing application : VirtualDubMod 1.5.10.3 | www.virtualdub-fr.org || (build 2550/release)
Writing library : VirtualDubMod build 2550/release
Video #0
ID : 0
Format : MPEG-4 Visual
Format profile : Advanced Simple@L5
Format settings, BVOP : 1
Format settings, QPel : No
Format settings, GMC : No warppoints
Format settings, Matrix : Default (MPEG)
Codec ID : XVID
Codec ID/Hint : XviD
Duration : 49mn 56s
Bit rate : 1 479 Kbps
Width : 720 pixels
Height : 272 pixels
Display aspect ratio : 2.647
Frame rate : 23.976 fps
Color space : YUV
Chroma subsampling : 4:2:0
Bit depth : 8 bits
Scan type : Progressive
Compression mode : Lossy
Bits/(Pixel*Frame) : 0.315
Stream size : 528 MiB (88%)
Writing library : XviD 73
Audio #1
ID : 1
Format : AC-3
Format/Info : Audio Coding 3
Mode extension : CM (complete main)
Format settings, Endianness : Big
Codec ID : 2000
Duration : 49mn 56s
Bit rate mode : Constant
Bit rate : 192 Kbps
Channel(s) : 2 channels
Channel positions : Front: L R
Sampling rate : 48.0 KHz
Bit depth : 16 bits
Compression mode : Lossy
Stream size : 68.6 MiB (11%)
Alignment : Split accross interleaves
Interleave, duration : 42 ms (1.00 video frame)
Interleave, preload duration : 500 ms

Скриншоты

Внимание! Раздача ведётся путём добавления новых серий:

(1) остановить скачивание,
(2) удалить старый торрент у себя из клиента (старые серии удалять не надо),
(3) скачать новый торрент и запустить его у себя в клиенте вместо старого, при этом указать клиенту путь в старую папку куда и должно происходить скачивание новых серий.
Ваш клиент при этом должен произвести хеширование (проверку) старой папки (если не производит сам - помогите ему сделать это), и будет докачивать только те серии которых у вас ещё нет. Старые серии при этом не удаляются, а продолжают раздаваться!
Eсли вы уже удалили старые серии, то предотвратить повторную закачку старых серий можно, отжав галочку в соответсвующих местах при запуске нового торрента. По возможности, желательно не удалять старые серии как можно дольше чтобы релизёр не столько продолжал раздавать старые серии, а смог сконцентрироваться на новых
.
[opentorrent.pro].t3621.torrent 
Торрент: Зарегистрирован [ 2019-06-13 17:05 ] · 2735DEF4075588E07990F3A9D812F61BB2EDF8A6

Скачать .torrent

Скачать

13 KB

Статус: проверено
Скачан: 0 раз
Размер: 1,21 GB  ·  Тип торрента
terms.php
Показать сообщения:    

Текущее время: 03-Июн 11:47

Часовой пояс: UTC ± 0



Вы не можете начинать темы
Вы не можете отвечать на сообщения
Вы не можете редактировать свои сообщения
Вы не можете удалять свои сообщения
Вы не можете голосовать в опросах
Вы не можете прикреплять файлы к сообщениям
Вы можете скачивать файлы