Статистика раздачи
Размер:  4,6 GB   |    Зарегистрирован:  1 год 3 месяца   |    Скачан:  0 раз
DL-List: Нет
Сидов:  2  [  0 KB/s  ]  
 
     
 
 

Гость ®

Пол:
Не указан

В клетке
Год выпуска: 2019
Производство: «Киностудия КИТ» совместно с продюсерским центром «TeamFilm»
Жанр: драма, криминал, спорт
Продолжительность: ~00:50:00 серия
Субтитры: нет
Режиссёр: Артем Аксененко
В ролях: Павел Прилучный, Владимир Епифанцев, Артур Ваха, Агата Муцениеце, Екатерина Маликова, Наталья Парашкина, Даниил Воробьёв, Лаура Кеосаян, Алексей Ильин
Описание: В Калининград одновременно возвращаются отец и сын Евдокимовы: Сергей, по прозвищу Волчок вышел после семи лет тюрьмы по 228 статье; его отец, Алексей Евдокимов, сбежал в родной город от проблем в Москве. Сергей, вернувшись домой, не понимает, как жить дальше - он обнаруживает что мать окончательно спилась, а бывшая любовь Ольга его уже и не ждала. Кажется, только младший брат Женя счастлив видеть Волчка. А еще Дилер - бывший одноклассник, который за те несколько лет, что Сергей провел в колонии, поднялся от простого барыги до мафиози средней руки. С момента встречи отца и сына начнётся история о преодолении семейных травм, боли и зависимости. Им предстоит выбирать между долгом и любовью, между жизнью и смертью.

Реклама: Нет.
Кинопоиск
Все раздачи сериала
Sample
Качество: WEBRip 1080p - Getty
Формат: MKV
Видео кодек: H.264
Аудио кодек: AC3
Видео: MPEG4 AVC Video, H264, 16:9, 1920x1080, 23.976 fps, ~6480 kbps, 0.130 bit/pixel
Аудио: AC3 Dolby Digital, 48.0 kHz, 2/0 (L,R) ch, 192 kbps

Внимание! Раздача ведётся путём добавления новых серий

Раздача ведётся путём добавления новых серий, при каждом добавлении создаётся новый торрент. Чтобы начать докачку новой серии, пользователям необходимо сделать следующее:
- Остановить скачивание.
- Удалить старый торрент у себя из клиента (старые серии удалять не надо).
- Скачать новый торрент и запустить его у себя в клиенте вместо старого, при этом указать клиенту путь в старую папку куда и должно происходить скачивание новых серий.
Ваш клиент при этом должен произвести хеширование (проверку) старой папки (если не производит сам - помогите ему сделать это), и будет докачивать только те серии которых у вас ещё нет. Старые серии при этом не удаляются, а продолжают раздаваться!
Если вы уже удалили старые серии, то предотвратить повторную закачку старых серий можно, отжав галочку в соответствующих местах при запуске нового торрента. По возможности, желательно не удалять старые серии как можно дольше, чтобы релизер не столько продолжал раздавать старые серии, а смог сконцентрироваться на новых.

MI

General
Unique ID : 183730973501597856062034370776616323797 (0x8A394C612D7FCF85A06AD8D0B916CAD5)
Complete name : D:\V.kletke.2019.WEB-DL.(1080p).Getty\V.kletke.e01.2019.WEB-DL.(1080p).Getty.mkv
Format : Matroska
Format version : Version 4 / Version 2
File size : 2.33 GiB
Duration : 49 min 56 s
Overall bit rate : 6 680 kb/s
Movie name : V.kletke.e01.2019.WEB-DL.(1080p).Getty
Encoded date : UTC 2019-06-12 20:57:33
Writing application : mkvmerge v7.8.0 ('River Man') 32bit built on Mar 27 2015 16:18:02
Writing library : libebml v1.3.1 + libmatroska v1.4.2
Video
ID : 1
Format : AVC
Format/Info : Advanced Video Codec
Format profile : High@L4
Format settings : CABAC / 4 Ref Frames
Format settings, CABAC : Yes
Format settings, ReFrames : 4 frames
Format settings, GOP : M=2, N=15
Codec ID : V_MPEG4/ISO/AVC
Duration : 49 min 56 s
Bit rate : 6 486 kb/s
Width : 1 920 pixels
Height : 1 080 pixels
Display aspect ratio : 16:9
Frame rate mode : Constant
Frame rate : 23.976 (24000/1001) FPS
Color space : YUV
Chroma subsampling : 4:2:0
Bit depth : 8 bits
Scan type : Progressive
Bits/(Pixel*Frame) : 0.130
Stream size : 2.26 GiB (97%)
Default : Yes
Forced : No
Audio
ID : 2
Format : AC-3
Format/Info : Audio Coding 3
Codec ID : A_AC3
Duration : 49 min 56 s
Bit rate mode : Constant
Bit rate : 192 kb/s
Channel(s) : 2 channels
Channel positions : Front: L R
Sampling rate : 48.0 kHz
Frame rate : 31.250 FPS (1536 SPF)
Bit depth : 16 bits
Compression mode : Lossy
Stream size : 68.6 MiB (3%)
Service kind : Complete Main
Default : Yes
Forced : No

Скриншоты


[opentorrent.pro].t3623.torrent 
Торрент: Зарегистрирован [ 2019-06-13 17:05 ] · C778A9791BBDBBFE188B4908D25DC6510CFF7B46

Скачать .torrent

Скачать

24 KB

Статус: проверено
Скачан: 0 раз
Размер: 4,6 GB  ·  Тип торрента
terms.php
Показать сообщения:    

Текущее время: 19-Сен 22:56

Часовой пояс: UTC ± 0



Вы не можете начинать темы
Вы не можете отвечать на сообщения
Вы не можете редактировать свои сообщения
Вы не можете удалять свои сообщения
Вы не можете голосовать в опросах
Вы не можете прикреплять файлы к сообщениям
Вы можете скачивать файлы