Статистика раздачи
Размер:  1,2 GB   |    Зарегистрирован:  1 год 3 месяца   |    Скачан:  0 раз
DL-List: Нет
Сидов:  9  [  0 KB/s  ]   Личеров:  1  [  0 KB/s  ]  
 
     
 
 

Гость ®

Пол:
Не указан

Беловодье. Тайна затерянной страны
Год выпуска: 2016
Производство: Россия, ИВД Кино
Жанр: Мистика, приключения, фэнтези
Продолжительность: 00:48:00
Субтитры: Нет
Режиссёр: Евгений Бедарев
В ролях: Александр Петров (II), Светлана Суханова, Татьяна Орлова, Алексей Васильев (II), Алла Подчуфарова, Юлия Самойленко, Павел Крайнов, Роман Курцын, Марианна Шульц, Залим Мирзоев, Сергей Майоров (III), Любовь Виролайнен, Александр Пальчиков, Екатерина Ефимова, Руслан Спояло, Евгений Морозов, Данила Якушев, Рустам Махмутов, Дарья Макарова, Алёна Ковалёва, Михаил Хмуров, Николай Токарев, Дмитрий Бедарев, Максим Важов, Елена Аросьева
Описание: Герои самого зрелищного российского фэнтези-сериала «Пока цветет папоротник» возвращаются на экраны в новой полной приключений и волшебства истории «Беловодье. Тайна затерянной страны». Страшная тайна Хранителей открыта. Провал земли в заброшенном горном монастыре освободил силу, которая угрожает всей жизни на Земле. В параллельных мирах развернулась борьба за власть, каждый ведет свою смертельную игру, и понять, кто враг, а кто друг невозможно. Остается только один шанс на спасение. Но для последней Надежды нужна крепкая Вера и страстная Любовь.
Релиз группа
Реклама: Сторонней рекламы нет!
Все раздачи сериала Беловодье. Тайна затерянной страны


Качество: WEBRip
Формат: AVI
Видео кодек: XviD
Аудио кодек: AC3
Видео: 720x400 (1.80:1), 25 fps, XviD build 73 ~1600 kbps avg, 0.222 bit/pixel
Аудио: 48 kHz, AC3 Dolby Digital, 2/0 (L,R) ch, ~192 kbps

Скриншоты

MediaInfo

General
Complete name : C:\00\6354\Беловодье.Тайна затерянной страны ... 2019.WEB-DLRip. Files-x\02. Беловодье. Тайна затерянной страны .2016.WEB-DLRip. Files-x.avi
Format : AVI
Format/Info : Audio Video Interleave
File size : 615 MiB
Duration : 47mn 48s
Overall bit rate : 1 800 Kbps
Writing application : VirtualDubMod 1.5.10.3 | www.virtualdub-fr.org || (build 2550/release)
Writing library : VirtualDubMod build 2550/release
Video
ID : 0
Format : MPEG-4 Visual
Format profile : Advanced Simple@L5
Format settings, BVOP : 1
Format settings, QPel : No
Format settings, GMC : No warppoints
Format settings, Matrix : Custom
Codec ID : XVID
Codec ID/Hint : XviD
Duration : 47mn 48s
Bit rate : 1 598 Kbps
Width : 720 pixels
Height : 400 pixels
Display aspect ratio : 16:9
Frame rate : 25.000 fps
Color space : YUV
Chroma subsampling : 4:2:0
Bit depth : 8 bits
Scan type : Progressive
Compression mode : Lossy
Bits/(Pixel*Frame) : 0.222
Stream size : 546 MiB (89%)
Writing library : XviD 73
Audio
ID : 1
Format : AC-3
Format/Info : Audio Coding 3
Mode extension : CM (complete main)
Codec ID : 2000
Duration : 47mn 48s
Bit rate mode : Constant
Bit rate : 192 Kbps
Channel(s) : 2 channels
Channel positions : Front: L R
Sampling rate : 48.0 KHz
Bit depth : 16 bits
Compression mode : Lossy
Stream size : 65.7 MiB (11%)
Alignment : Split accross interleaves
Interleave, duration : 40 ms (1.00 video frame)
Interleave, preload duration : 500 ms

Внимание! Раздача ведётся путём добавления новых серий!

Внимание! Раздача ведётся путём добавления новых серий
Внимание! Раздача ведётся путём добавления новых серий; при каждом добавлении создётся новый торрент.
Чтобы начать докачку новой серии, пользователям необходимо сделать следующее:
1) остановить скачивание
2) удалить старый торрент у себя из клиента (старые серии удалять не надо)
3) скачать новый торрент и запустить его у себя в клиенте вместо старого, при этом указать клиенту путь в старую папку куда и должно происходить скачивание новых серий.
Ваш клиент при этом должен произвести хеширование (проверку) старой папки (если не производит сам - помогите ему сделать это), и будет докачивать только те серии которых у вас ещё нет. Старые серии при этом не удаляются, а продолжают раздаваться!
Eсли вы уже удалили старые серии, то предотвратить повторную закачку старых серий можно, отжав галочку в соответствовавших местах при запуске нового торрента.
[opentorrent.pro].t3631.torrent 
Торрент: Зарегистрирован [ 2019-06-14 15:32 ] · 917334581DED1E5309A4654405BA6EEC9E2652CF

Скачать .torrent

Скачать

13 KB

Статус: проверено
Скачан: 0 раз
Размер: 1,2 GB  ·  Тип торрента
terms.php
Показать сообщения:    

Текущее время: 24-Сен 10:36

Часовой пояс: UTC ± 0



Вы не можете начинать темы
Вы не можете отвечать на сообщения
Вы не можете редактировать свои сообщения
Вы не можете удалять свои сообщения
Вы не можете голосовать в опросах
Вы не можете прикреплять файлы к сообщениям
Вы можете скачивать файлы