Статистика раздачи
Размер:  1,45 GB   |    Зарегистрирован:  1 год 1 месяц   |    Скачан:  0 раз
DL-List: Нет

Полного источника не было: Никогда

 
     
 
 

Гость ®

Пол:
Не указан

Больной от любви / Любовное безумие / Lovesick
Страна: США
Жанр: мелодрама, комедия
Год выпуска: 2014
Продолжительность: 01:24:47
Перевод: Профессиональный (многоголосый закадровый) Киносвидание
Субтитры: нет
Оригинальная аудиодорожка: английский
Режиссер: Люк Мэзени / Luke Matheny
В ролях: Мэтт ЛеБлан
Эли Лартер
Адам Родригес
Эшли Уильямс
Ребекка Наоми Джонс
Карсен Уорнер
Конни Сойер
Кэмерон Ричардсон
Ричард Рили
Дженнифер Родс
Описание: Успешный и уже не молодой мужчина Чарли может считать свою жизнь идеальной. Прекрасная карьера, хороший доход, приличный дом, преданные друзья – чего же не хватает в этом списке? Любви и семьи.
Не стоит думать, что герой специально отказывается от серьезных отношений. Напротив, он горит желанием создать собственную ячейку общества. Только вот раз за разом у него возникает одна и та же проблема.
Чарли после непродолжительного романа начинает, в прямом смысле, сходить сума. Его влюбленность перерастает в настоящий психоз, в результате чего отношения обрываются. Но ему нужно взять себя в руки, чтобы преодолеть странный недуг
Сэмпл: http://multi-up.com/1234498
Качество видео: HDRip
Формат видео: AVI
Видео: MPEG4, XviD, 720x304 (2.35:1), 23.976 fps, 1 789 Kbps (0.341 bit/pixel)
Аудио: AC-3, 48.0 KHz, 2 ch, 192 Kbps, CBR - русский
Аудио 2: AC-3, 48.0 KHz, 6 ch, 448 Kbps, CBR - английский

MediaInfo

Общее
Полное имя : F:\Любовное безумие.avi
Формат : AVI
Формат/Информация : Audio Video Interleave
Размер файла : 1,45 Гбайт
Продолжительность : 1 ч. 24 м.
Общий поток : 2443 Кбит/сек
Название фильма : Больной от любви / Любовное безумие / Lovesick (2014)
Программа кодирования : VirtualDubMod 1.5.10.2 (build 2540/release)
Библиотека кодирования : VirtualDubMod build 2540/release
Авторское право : miha2154
Видео
Идентификатор : 0
Формат : MPEG-4 Visual
Профиль формата : Advanced Simple@L5
Настройки формата : BVOP1 / Custom Matrix
Параметр BVOP формата : 1
Параметр QPel формата : Нет
Параметр GMC формата : Без точки перехода
Параметр матрицы формата : Выборочная
Идентификатор кодека : XVID
Идентификатор кодека/Подсказка : XviD
Продолжительность : 1 ч. 24 м.
Битрейт : 1789 Кбит/сек
Ширина : 720 пикселей
Высота : 304 пикселя
Соотношение сторон : 2,35:1
Частота кадров : 23,976 (24000/1001) кадра/сек
Цветовое пространство : YUV
Субдискретизация насыщенности : 4:2:0
Битовая глубина : 8 бит
Тип развёртки : Прогрессивная
Метод сжатия : С потерями
Бит/(Пиксели*Кадры) : 0.341
Размер потока : 1,06 Гбайт (73%)
Библиотека кодирования : XviD 65
Аудио #1
Идентификатор : 1
Формат : AC-3
Формат/Информация : Audio Coding 3
Коммерческое название : Dolby Digital
Идентификатор кодека : 2000
Продолжительность : 1 ч. 24 м.
Вид битрейта : Постоянный
Битрейт : 192 Кбит/сек
Каналы : 2 канала
Channel layout : L R
Частота : 48,0 КГц
Частота кадров : 31,250 кадров/сек (1536 SPF)
Битовая глубина : 16 бит
Метод сжатия : С потерями
Размер потока : 116 Мбайт (8%)
Выравнивание : Разделение по промежуткам
Продолжительность промежутка : 42 мс. (1,00 видеокадр)
Время предзагрузки промежутка : 500 мс.
Заголовок : Профессиональный (многоголосый, закадровый) Киносвидание HD
ServiceKind/String : Complete Main
Аудио #2
Идентификатор : 2
Формат : AC-3
Формат/Информация : Audio Coding 3
Коммерческое название : Dolby Digital
Идентификатор кодека : 2000
Продолжительность : 1 ч. 24 м.
Вид битрейта : Постоянный
Битрейт : 448 Кбит/сек
Каналы : 6 каналов
Channel layout : L R C LFE Ls Rs
Частота : 48,0 КГц
Частота кадров : 31,250 кадров/сек (1536 SPF)
Битовая глубина : 16 бит
Метод сжатия : С потерями
Размер потока : 272 Мбайт (18%)
Выравнивание : Разделение по промежуткам
Продолжительность промежутка : 42 мс. (1,00 видеокадр)
Время предзагрузки промежутка : 500 мс.
Заголовок : Английский
ServiceKind/String : Complete Main

Скриншот c названием фильма

Скриншоты


[opentorrent.pro].t3634.torrent 
Торрент: Зарегистрирован [ 2019-06-14 15:32 ] · 280E37CD7ECE33845B1919BF631463F112B5E7C4

Скачать .torrent

Скачать

15 KB

Статус: проверено
Скачан: 0 раз
Размер: 1,45 GB  ·  Тип торрента
terms.php
Показать сообщения:    

Текущее время: 09-Авг 23:53

Часовой пояс: UTC ± 0



Вы не можете начинать темы
Вы не можете отвечать на сообщения
Вы не можете редактировать свои сообщения
Вы не можете удалять свои сообщения
Вы не можете голосовать в опросах
Вы не можете прикреплять файлы к сообщениям
Вы можете скачивать файлы