Статистика раздачи
Размер:  742 MB   |    Зарегистрирован:  11 месяцев 20 дней   |    Скачан:  0 раз
DL-List: Нет

Полного источника не было: Никогда

 
     
 
 

солнышко ®

Пол:
Не указан
Стаж:
1 год 2 месяца
Сообщений:
723

Время монстров / The Head Hunter
Страна: США
Жанр: ужасы, фэнтези
Год выпуска: 2018
Продолжительность: 01:12:27-Перевод: Профессиональный (дублированный) | iTunes
Субтитры: нет
Оригинальная аудиодорожка: нет-Режиссер: Джордан Дауни / Jordan Downey-В ролях: Кристофер Рай, Кора Кауфман-Описание: В темном лесу, расположенном на окраине королевства, живет суровый воин. Все свое время он посвящает охоте на злобных монстров, терроризирующих местное население. Ему удалось собрать жуткую коллекцию из голов убитых им чудовищ, однако в ней не хватает главной головы – той, что принадлежит твари, которая много лет назад убила его единственную дочь. Всякий раз услышав звук горна, доносящийся из соседнего замка, воин бросает все свои дела и мчится на поиски очередного чудовища, надеясь встретить того, кто лишил его любимого дитя...- -Качество видео: BDRip | The.Head.Hunter.2018.BDREMUX.1080p.seleZen
Формат видео: AVI
Видео: 688x384 (1.79:1), 23.976 fps, XviD build 73 ~1294 kbps avg, 0.20 bit/pixel
Аудио: 48 kHz, MPEG Layer 3, 2 ch, ~128.00 kbps avg-Сэмпл-

MediaInfo

Код:Формат : AVI
Формат/Информация : Audio Video Interleave
Размер файла : 742 Мбайт
Продолжительность : 1 ч. 12 м.
Общий поток : 1431 Кбит/сек
Название фильма : Время монстров_2018_BDRip
Программа кодирования : VirtualDubMod 1.5.10.3 | www.virtualdub-fr.org || (build 2550/release)
Авторское право : порошков
Видео
Идентификатор : 0
Формат : MPEG-4 Visual
Профиль формата : Advanced Simple@L5
Настройки формата : BVOP1 / Custom Matrix
Параметр BVOP формата : 1
Параметр QPel формата : Нет
Параметр GMC формата : Без точки перехода
Параметр матрицы формата : Выборочная
Идентификатор кодека : XVID
Идентификатор кодека/Подсказка : XviD
Продолжительность : 1 ч. 12 м.
Битрейт : 1295 Кбит/сек
Ширина : 688 пикселей
Высота : 384 пикселя
Соотношение сторон : 16:9
Частота кадров : 23,976 (24000/1001) кадра/сек
Цветовое пространство : YUV
Субдискретизация насыщенности : 4:2:0
Битовая глубина : 8 бит
Тип развёртки : Прогрессивная
Метод сжатия : С потерями
Бит/(Пиксели*Кадры) : 0.204
Размер потока : 671 Мбайт (90%)
Библиотека кодирования : XviD 73
Аудио
Идентификатор : 1
Формат : MPEG Audio
Версия формата : Version 1
Профиль формата : Layer 3
Идентификатор кодека : 55
Идентификатор кодека/Подсказка : MP3
Продолжительность : 1 ч. 12 м.
Вид битрейта : Постоянный
Битрейт : 128 Кбит/сек
Каналы : 2 канала
Частота : 48,0 КГц
Частота кадров : 41,667 кадра/сек (1152 SPF)
Метод сжатия : С потерями
Размер потока : 66,0 Мбайт (9%)
Выравнивание : Соединение по промежуткам
Продолжительность промежутка : 42 мс. (1,01 видеокадр)
Время предзагрузки промежутка : 504 мс.
Библиотека кодирования : LAME3.99r
Настройки программы : -m s -V 4 -q 2 -lowpass 17 -b 128

Скриншоты


[opentorrent.pro].t3636.torrent 
Торрент: Зарегистрирован [ 2019-06-14 15:32 ] · 33EF3AEA28158A1EDA6828CDE31691D3E26D0756

Скачать .torrent

Скачать

15 KB

Статус: проверено
Скачан: 0 раз
Размер: 742 MB  ·  Тип торрента
terms.php
Профиль [ЛС]
Показать сообщения:    

Текущее время: 04-Июн 21:14

Часовой пояс: UTC ± 0



Вы не можете начинать темы
Вы не можете отвечать на сообщения
Вы не можете редактировать свои сообщения
Вы не можете удалять свои сообщения
Вы не можете голосовать в опросах
Вы не можете прикреплять файлы к сообщениям
Вы можете скачивать файлы