Статистика раздачи
Размер:  1,79 GB   |    Зарегистрирован:  11 месяцев 19 дней   |    Скачан:  0 раз
DL-List: Нет

Полного источника не было: Никогда

 
     
 
 

солнышко ®

Пол:
Не указан
Стаж:
1 год 2 месяца
Сообщений:
723

План свадьбы / Преодоление / Пройти сквозь стену / Laavor et hakir / The Wedding Plan / Through the Wall
Страна: Израиль
Жанр: комедия, мелодрама
Год выпуска: 2016
Продолжительность: 01:46:17
Перевод: Профессиональный (двухголосый закадровый) - Транстайтлс ЛТД
Субтитры: русские
Оригинальная аудиодорожка: иврит
Режиссер: Рама Бурштейн / Rama Burshtein
В ролях: Ноа Колер, Одед Леопольд, Оз Захави, Амос Тамам, Ронни Мерхави, Ирит Шелег
Описание: Приготовления к свадьбе были в самом разгаре, когда жених сообщил своей невесте Михаль, что передумал жениться. Желая выйти замуж в намеченный срок, девушка отказывается отменять свадьбу, веря, что Бог пошлёт ей за это время нового мужа…

Сэмпл
Качество видео: DVDRip
Формат видео: AVI
Видео: 720x384 (1.88:1), 25 fps, XviD build 73 ~1759 kbps avg, 0.25 bit/pixel
Аудио: 48 kHz, AC3 Dolby Digital, 2/0 (L,R) ch, ~192 kbps - двухголосый
Аудио: 48 kHz, AC3 Dolby Digital, 3/2 (L,C,R,l,r) + LFE ch, ~448 kbps - оригинал (отдельным файлом)
Формат субтитров: softsub (SRT)

MediaInfo

General
Complete name : H:\Laavor.et.hakir.2016.dvdrip_[1.46]_[teko]\Laavor.et.hakir.2016.dvdrip_[1.46].avi
Format : AVI
Format/Info : Audio Video Interleave
File size : 1.46 GiB
Duration : 1h 46mn
Overall bit rate : 1 962 Kbps
Writing application : VirtualDubMod 1.5.10.3 | www.virtualdub-fr.org || (build 2550/release)
Writing library : VirtualDubMod build 2550/release
Video
ID : 0
Format : MPEG-4 Visual
Format profile : Advanced Simple@L5
Format settings, BVOP : 2
Format settings, QPel : No
Format settings, GMC : No warppoints
Format settings, Matrix : Custom
Codec ID : XVID
Codec ID/Hint : XviD
Duration : 1h 46mn
Bit rate : 1 760 Kbps
Width : 720 pixels
Height : 384 pixels
Display aspect ratio : 1.85:1
Frame rate : 25.000 fps
Color space : YUV
Chroma subsampling : 4:2:0
Bit depth : 8 bits
Scan type : Progressive
Compression mode : Lossy
Bits/(Pixel*Frame) : 0.255
Stream size : 1.31 GiB (90%)
Writing library : XviD 73
Audio
ID : 1
Format : AC-3
Format/Info : Audio Coding 3
Mode extension : CM (complete main)
Format settings, Endianness : Big
Codec ID : 2000
Duration : 1h 46mn
Bit rate mode : Constant
Bit rate : 192 Kbps
Channel(s) : 2 channels
Channel positions : Front: L R
Sampling rate : 48.0 KHz
Frame rate : 31.250 fps (1536 spf)
Compression mode : Lossy
Stream size : 146 MiB (10%)
Alignment : Split accross interleaves
Interleave, duration : 40 ms (1.00 video frame)
Interleave, preload duratio : 500 ms
Релиз группы:
--
[opentorrent.pro].t3641.torrent 
Торрент: Зарегистрирован [ 2019-06-14 15:32 ] · F600C511914C6C206B013C9193397359A2ACC779

Скачать .torrent

Скачать

19 KB

Статус: проверено
Скачан: 0 раз
Размер: 1,79 GB  ·  Тип торрента
terms.php
Профиль [ЛС]
Показать сообщения:    

Текущее время: 04-Июн 07:13

Часовой пояс: UTC ± 0



Вы не можете начинать темы
Вы не можете отвечать на сообщения
Вы не можете редактировать свои сообщения
Вы не можете удалять свои сообщения
Вы не можете голосовать в опросах
Вы не можете прикреплять файлы к сообщениям
Вы можете скачивать файлы