Статистика раздачи
Размер:  1,6 GB   |    Зарегистрирован:  1 год 1 месяц   |    Скачан:  0 раз
DL-List: Нет

Полного источника не было: Никогда

 
     
 
 

serzh ®

Пол:
Не указан
Стаж:
1 год 4 месяца
Сообщений:
442

Холодным взором / Medium Cool
Страна: США
Жанр: драма
Год выпуска: 1969
Продолжительность: 01:50:39
Перевод: Одноголосый закадровый - uhtyshk
Субтитры: русские (Abris, uhtyshk), английские
Оригинальная аудиодорожка: английский
Режиссер: Хэскелл Уэкслер / Haskell Wexler
В ролях: Роберт Форстер, Верна Блум, Питер Бонерз, Марианна Хилл, Харольд Бланкеншип, Чарльз Джиари, Сид МакКой, Кристин Бергсторм, Роберт МакЭндрю
Описание: «Холодным взором» – редкий пример того случая, когда голливудская студия выпустила абсолютно независимый по своему духу фильм, в котором стёрты границы между игровым и документальным кино и смело представлены все противоречия происходящих тогда политических и социальных процессов, которые замалчивались телевидением и пока ещё не были раскрыты в кинематографе.
Американский кинематографист Хаскелл Уэкслер снял неоднозначную картину о человеке с киноаппаратом в эпоху протеста. Сюжет фильма о телевизионном операторе из Чикаго вплетён в канву реальных событий того времени и снят с документальной достоверностью в самой гуще массовых бунтов 1968-го года, жестоко подавляемых полицией. Режиссёр исследует природу насилия и протеста и гипнотическое воздействие, которое оказывает на людей процесс киносъёмки и просмотра кинохроники. Фильм иллюстрирует, как человек испытывает при этом невероятное возбуждение, но в то же время держится на холодной дистанции.

Сэмпл
Качество видео: HDRip
Формат видео: AVI
Видео: 720x384 (1.88:1), 23.976 fps, XviD build 73 ~1681 kbps avg, 0.25 bit/pixel
Аудио: 48 kHz, AC3 Dolby Digital, 2/0 (L,R) ch, ~192 kbps - одноголосый
Аудио: 48 kHz, AC3 Dolby Digital, 2/0 (L,R) ch, ~192 kbps - оригинал (отдельным файлом)
Формат субтитров: softsub (SRT)

MediaInfo

General
Complete name : H:\Medium Cool.1969.hdrip_[1.46]_[teko]\Medium Cool.1969.hdrip_[1.46].avi
Format : AVI
Format/Info : Audio Video Interleave
File size : 1.46 GiB
Duration : 1h 50mn
Overall bit rate : 1 883 Kbps
Writing application : VirtualDubMod 1.5.10.3 | www.virtualdub-fr.org || (build 2550/release)
Writing library : VirtualDubMod build 2550/release
Video
ID : 0
Format : MPEG-4 Visual
Format profile : Advanced Simple@L5
Format settings, BVOP : 2
Format settings, QPel : No
Format settings, GMC : No warppoints
Format settings, Matrix : Custom
Codec ID : XVID
Codec ID/Hint : XviD
Duration : 1h 50mn
Bit rate : 1 682 Kbps
Width : 720 pixels
Height : 384 pixels
Display aspect ratio : 1.85:1
Frame rate : 23.976 (23976/1000) fps
Color space : YUV
Chroma subsampling : 4:2:0
Bit depth : 8 bits
Scan type : Progressive
Compression mode : Lossy
Bits/(Pixel*Frame) : 0.254
Stream size : 1.30 GiB (89%)
Writing library : XviD 73
Audio
ID : 1
Format : AC-3
Format/Info : Audio Coding 3
Mode extension : CM (complete main)
Format settings, Endianness : Big
Codec ID : 2000
Duration : 1h 50mn
Bit rate mode : Constant
Bit rate : 192 Kbps
Channel(s) : 2 channels
Channel positions : Front: L R
Sampling rate : 48.0 KHz
Frame rate : 31.250 fps (1536 spf)
Compression mode : Lossy
Stream size : 152 MiB (10%)
Alignment : Split accross interleaves
Interleave, duration : 42 ms (1.00 video frame)
Interleave, preload duratio : 500 ms
Релиз группы:
--
[opentorrent.pro].t3642.torrent 
Торрент: Зарегистрирован [ 2019-06-14 15:32 ] · EFA8DDBE48AEFEAB612F58BFD60BCE47EA0F169D

Скачать .torrent

Скачать

17 KB

Статус: проверено
Скачан: 0 раз
Размер: 1,6 GB  ·  Тип торрента
terms.php
Профиль [ЛС]
Показать сообщения:    

Текущее время: 16-Июл 12:40

Часовой пояс: UTC ± 0



Вы не можете начинать темы
Вы не можете отвечать на сообщения
Вы не можете редактировать свои сообщения
Вы не можете удалять свои сообщения
Вы не можете голосовать в опросах
Вы не можете прикреплять файлы к сообщениям
Вы можете скачивать файлы