Статистика раздачи
Размер:  1,37 GB   |    Зарегистрирован:  11 месяцев 9 дней   |    Скачан:  0 раз
DL-List: Нет

Полного источника не было: 10 месяцев 4 дня

 
     
 
 

солнышко ®

Пол:
Не указан
Стаж:
1 год 2 месяца
Сообщений:
723

-Время монстров / The Head Hunter-«Скорбь. Ярость. Месть»- -Страна: США
Жанр: ужасы, фэнтези
Год выпуска: 2018
Продолжительность: 01:12:27-Перевод: Профессиональный (дублированный) iTunes
Субтитры: нет
Оригинальная аудиодорожка: нет-Режиссер: Джордан Дауни / Jordan Downey-В ролях: Кристофер Рай, Кора Кауфман-Описание: Средневековый воин живёт отшельником в мрачном лесу и жаждет отомстить смертельно опасному существу за смерть единственной дочери. Получая от короля сведения о появляющихся в округе монстрах, он отправляется за их головами, каждый раз надеясь, что встретит своего заклятого врага.- - -Качество видео: BDRip / The.Head.Hunter.2018.BDREMUX.1080p.seleZen
Формат видео: AVI-Видео: XviD, 704x400 (16:9), 23.976 fps, ~2309 kbps avg, 0.342 bit/pixel
Аудио: 48 kHz, AC3 Dolby Digital, 3/2 (L,C,R,l,r) + LFE ch, ~384 kbps avg-

MediaInfo

Код:Complete name : D:\Раздача\Время монстров (2018) BDRip_ivanes.avi
Format : AVI
Format/Info : Audio Video Interleave
File size : 1.37 GiB
Duration : 1 h 12 min
Overall bit rate : 2 700 kb/s
Writing application : VirtualDubMod 1.5.10.3 (build 2550/release)
Writing library : VirtualDubMod build 2550/release
Video
ID : 0
Format : MPEG-4 Visual
Format profile : Advanced Simple@L5
Format settings, BVOP : 1
Format settings, QPel : No
Format settings, GMC : No warppoints
Format settings, Matrix : Custom
Codec ID : XVID
Codec ID/Hint : XviD
Duration : 1 h 12 min
Bit rate : 2 309 kb/s
Width : 704 pixels
Height : 400 pixels
Display aspect ratio : 16:9
Frame rate : 23.976 (24000/1001) FPS
Color space : YUV
Chroma subsampling : 4:2:0
Bit depth : 8 bits
Scan type : Progressive
Compression mode : Lossy
Bits/(Pixel*Frame) : 0.342
Stream size : 1.17 GiB (86%)
Writing library : XviD 67
Audio
ID : 1
Format : AC-3
Format/Info : Audio Coding 3
Format settings, Endianness : Big
Codec ID : 2000
Duration : 1 h 12 min
Bit rate mode : Constant
Bit rate : 384 kb/s
Channel(s) : 6 channels
Channel positions : Front: L C R, Side: L R, LFE
Sampling rate : 48.0 kHz
Frame rate : 31.250 FPS (1536 SPF)
Bit depth : 16 bits
Compression mode : Lossy
Stream size : 198 MiB (14%)
Alignment : Split accross interleaves
Interleave, duration : 42 ms (1.01 video frame)
Interleave, preload duratio : 500 ms
Service kind : Complete Main

Скриншоты

[opentorrent.pro].t3650.torrent 
Торрент: Зарегистрирован [ 2019-06-15 16:09 ] · 5BE3554D308DCD0551E55128DEAA1808CB96A15E

Скачать .torrent

Скачать

14 KB

Статус: проверено
Скачан: 0 раз
Размер: 1,37 GB  ·  Тип торрента
terms.php
Профиль [ЛС]
Показать сообщения:    

Текущее время: 25-Май 07:20

Часовой пояс: UTC ± 0



Вы не можете начинать темы
Вы не можете отвечать на сообщения
Вы не можете редактировать свои сообщения
Вы не можете удалять свои сообщения
Вы не можете голосовать в опросах
Вы не можете прикреплять файлы к сообщениям
Вы можете скачивать файлы