Статистика раздачи
Размер:  713 MB   |    Зарегистрирован:  1 год 1 месяц   |    Скачан:  0 раз
DL-List: Нет

Полного источника не было: Никогда

 
     
 
 

солнышко ®

Пол:
Не указан
Стаж:
1 год 4 месяца
Сообщений:
720

Долгая ночь Франсиско Санктиса / La larga noche de Francisco Sanctis
Страна: Аргентина
Жанр: драма
Год выпуска: 2016
Продолжительность: 01:18:30
Перевод: Субтитры
Субтитры: русские - enoeno
Оригинальная аудиодорожка: испанский
Режиссер: Андреа Теста / Andrea Testa, Франсиско Маркес / Francisco Márquez
В ролях: Диего Веласкес, Лаура Паредес, Марсело Субиотто, Валерия Лоис, Ромина Пинто, Рафаэль Федерман
Описание: 1977 год. Время военной диктатуры в Аргентине. Простой служащий одной из компаний Франсиско Санктис, не имеющий никакого отношения к политике, должен сделать сложный выбор в своей жизни...
Доп. информация: По одноименной повести Умберто Костантини. Рип из сети. Перевод субтитров - enoeno
Сэмпл: http://sendfile.su/1500280
Качество видео: DVDRip
Формат видео: AVI
Видео: MPEG-4 Visual at 1069 Кбит/сек, 720 x 480 (1.500) at 24.000 fps
Аудио: AC-3 at 192 Кбит/сек, 2 канала, 48,0 КГц
Формат субтитров: softsub (SRT)

Образец субтитров

1
00:01:19,944 --> 00:01:32,880
ДОЛГАЯ НОЧЬ ФРАНСИСКО САНКТИСА
2
00:01:42,200 --> 00:01:43,792
На.
3
00:01:44,969 --> 00:01:46,937
Не клади это так близко к ним.
4
00:01:47,906 --> 00:01:49,498
Ну, это ты бросил курить, а не я.
5
00:01:49,607 --> 00:01:52,701
- Ты могла хотя бы подождать, когда мы уйдем.
- Мама, я хочу тост?
6
00:01:54,212 --> 00:01:57,147
Мама, что это за зверь?
7
00:01:57,715 --> 00:01:59,182
Тукан.
8
00:02:09,994 --> 00:02:11,928
Не, не хочу с маслом.
9
00:02:12,764 --> 00:02:14,026
Во сколько ты должна быть там?
10
00:02:14,132 --> 00:02:16,965
Я сказала директору,
что буду в школе в девять.
11
00:02:31,049 --> 00:02:32,778
На, пей.
12
00:02:36,254 --> 00:02:39,155
Я не об этом. Я имею в виду,
что ты работаешь часами.
13
00:02:39,257 --> 00:02:40,884
Может быть, так это и не нужно.
14
00:02:41,626 --> 00:02:42,593
Да, посмотрим.
15
00:02:42,694 --> 00:02:44,685
- Он слишком горячий.
- Нет, не горячий.
16
00:02:45,497 --> 00:02:47,988
- Очень горячий.
- Да нет же.
17
00:02:52,804 --> 00:02:53,964
Да, очень горячий.
18
00:03:00,879 --> 00:03:01,868
Извини.
19
00:03:01,980 --> 00:03:03,811
Убери это от моего лица, пожалуйста.
20
00:03:15,226 --> 00:03:17,922
Осталась минутка, быстрее пей.
21
00:03:18,696 --> 00:03:21,859
Осталось немного подождать
- меня скоро повысят.
22
00:03:23,134 --> 00:03:25,830
- Бла, бла, бла.
- Бла, бла.
23
00:03:30,708 --> 00:03:31,936
Все еще очень горячий.
24
00:03:32,043 --> 00:03:33,772
Веди Хавьера. Слишком поздно.
25
00:04:34,172 --> 00:04:36,072
Папа, давай поиграем.
26
00:04:39,577 --> 00:04:41,135
Ты помнишь игру?
27
00:04:41,613 --> 00:04:45,447
- Сделай руки так.
- Да.
28
00:04:48,086 --> 00:04:50,054
Папа, посмотри.
29
00:04:55,793 --> 00:04:57,761
Я выиграла.
30
00:04:59,631 --> 00:05:01,531
Вот, посмотри сюда.

MediaInfo

Общее
Полное имя : G:\La.larga.noche.de.Francisco.Sanctis.2016\La.larga.noche.de.Francisco.Sanctis.2016.avi
Формат : AVI
Формат/Информация : Audio Video Interleave
Размер файла : 713 Мбайт
Продолжительность : 1 ч. 18 м.
Общий поток : 1270 Кбит/сек
Программа кодирования : VirtualDubMod 1.5.4.1 (build 2178/release)
Библиотека кодирования : VirtualDubMod build 2178/release
Видео
Идентификатор : 0
Формат : MPEG-4 Visual
Профиль формата : Simple@L0
Параметр BVOP формата : Нет
Параметр QPel формата : Нет
Параметр GMC формата : Без точки перехода
Параметр матрицы формата : Default (H.263)
Идентификатор кодека : XVID
Идентификатор кодека/Подсказка : XviD
Продолжительность : 1 ч. 18 м.
Битрейт : 1069 Кбит/сек
Ширина : 720 пикселей
Высота : 480 пикселей
Соотношение сторон : 3:2
Частота кадров : 24,000 кадра/сек
Стандарт вещания : NTSC
Цветовое пространство : YUV
Субдискретизация насыщенности : 4:2:0
Битовая глубина : 8 бит
Тип развёртки : Прогрессивная
Метод сжатия : С потерями
Бит/(Пиксели*Кадры) : 0.129
Размер потока : 600 Мбайт (84%)
Аудио
Идентификатор : 1
Формат : AC-3
Формат/Информация : Audio Coding 3
Расширение режима : CM (complete main)
Параметр Endianness формата : Big
Идентификатор кодека : 2000
Продолжительность : 1 ч. 18 м.
Вид битрейта : Постоянный
Битрейт : 192 Кбит/сек
Каналы : 2 канала
Расположение каналов : Front: L R
Частота : 48,0 КГц
Битовая глубина : 16 бит
Метод сжатия : С потерями
Размер потока : 108 Мбайт (15%)
Выравнивание : Разделение по промежуткам
Продолжительность промежутка : 42 мс. (1,00 видеокадр)
Время предзагрузки промежутка : 500 мс.

Скриншот c названием фильма

Скриншоты






[opentorrent.pro].t3654.torrent 
Торрент: Зарегистрирован [ 2019-06-15 16:09 ] · 55A457ED85AFEB0B6539E908259401E3E8A44C10

Скачать .torrent

Скачать

15 KB

Статус: проверено
Скачан: 0 раз
Размер: 713 MB  ·  Тип торрента
terms.php
Профиль [ЛС]
Показать сообщения:    

Текущее время: 04-Авг 17:48

Часовой пояс: UTC ± 0



Вы не можете начинать темы
Вы не можете отвечать на сообщения
Вы не можете редактировать свои сообщения
Вы не можете удалять свои сообщения
Вы не можете голосовать в опросах
Вы не можете прикреплять файлы к сообщениям
Вы можете скачивать файлы