Статистика раздачи
Размер:  1,48 GB   |    Зарегистрирован:  1 год 1 месяц   |    Скачан:  0 раз
DL-List: Нет

Полного источника не было: Никогда

 
     
 
 

serzh ®

Пол:
Не указан
Стаж:
1 год 4 месяца
Сообщений:
442

Как преуспеть в делах, когда ты дурак и плакса / Comment réussir... quand on est con et pleurnichard
Страна: Франция
Жанр: Комедия
Год выпуска: 1974
Продолжительность: 01:21:36
Перевод: Одноголосый закадровый Роман Янкелевич
Субтитры: нет
Оригинальная аудиодорожка: французский
Режиссер: Мишель Одиар / Michel Audiard
В ролях: Жан Карме, Стефан Одран, Джейн Биркин, Жан-Пьер Марьель, Жан Рошфор, Эвелин
Бюиль, John Arkan, Федор Аткин, Лоранс Бади, Пол Бисцилиа
Описание: Уже совсем немолодой Антуан Рабино живет с мамой-алкоголичкой и занимается в
своей квартирке производством отвратительного вермута, который покупатели называют ядом. Он
влюблен в мадемуазель Миле, но та регулярно пытается покончить жизнь самоубийством из-за
неверности ее любовника, директора отеля, женатого на богатой женщине, которой принадлежит
и отель, и шикарное поместье. Антуан регулярно пытается спасти жизнь неудачливой самоубийце
и после взрывов газа часто оказывается на больничной койке. Директор отеля влюбляется в
стриптизершу и уезжает с ней. Антуан занимает место директора в постели и на работе, где все та
же мадемуазель Миле, работающая в отеле, становится его любовницей. Антуан просит своего
друга, музыканта Фуанара, сообщить эту новость хозяйке. В результате, Фуанар становится
директором отеля. И первым делом новый директор увольняет мадемуазель Миле. А простак
Антуан оказывается у разбитого корыта.
Доп. информация: Дорожка с VO синхронизирована и наложена ale_x2008 при помощи Sony Vegas и
VirtualDubMod.
За оцифрованную с VHS дорожку благодарим - Mixa_12345_mixa
За новый видеоряд (исходник - DVD9) благодарим - xfiles

Релиз
Сэмпл: https://yadi.sk/i/1VL6HfHgq8DeBQ
Качество видео: DVDRip
Формат видео: AVI
Видео: XviD MPEG-4, 672x400 (1.68:1), 25 fps, 2205 kbps avg, 0.33 bit/pixel
Аудио: AC3 Dolby Digital, 48000Hz 2/0 (L,R) ch (mono), 192 kbps avg
Аудио 2: AC3 Dolby Digital, 48000Hz 2/0 (L,R) ch, 192 kbps avg

MediaInfo

Как преуспеть в делах, когда ты дурак и плакса - Comment réussir... quand on est con et [by ale_x2008].avi
Format : AVI
Format/Info : Audio Video Interleave
File size : 1.48 GiB
Duration : 1 h 21 min
Overall bit rate : 2 604 kb/s
Movie name : Как преуспеть в делах, когда ты дурак и плакса - Comment reussir... quand on est con et [by ale_x2008]
Director : by ale_x2008
Writing application : VirtualDubMod 1.5.10.2 (build 2540/release)
Copyright : Edich2
Comment : RuTracker.org
Video
ID : 0
Format : MPEG-4 Visual
Format profile : Advanced Simple@L5
Format settings : BVOP1 / Custom Matrix
Format settings, BVOP : 1
Format settings, QPel : No
Format settings, GMC : No warppoints
Format settings, Matrix : Custom
Codec ID : XVID
Codec ID/Hint : XviD
Duration : 1 h 21 min
Bit rate : 2 206 kb/s
Width : 672 pixels
Height : 400 pixels
Display aspect ratio : 5:3
Frame rate : 25.000 FPS
Color space : YUV
Chroma subsampling : 4:2:0
Bit depth : 8 bits
Scan type : Progressive
Compression mode : Lossy
Bits/(Pixel*Frame) : 0.328
Stream size : 1.26 GiB (85%)
Writing library : XviD 67
Audio #1
ID : 1
Format : AC-3
Format/Info : Audio Coding 3
Codec ID : 2000
Duration : 1 h 21 min
Bit rate mode : Constant
Bit rate : 192 kb/s
Channel(s) : 2 channels
Channel positions : Front: L R
Sampling rate : 48.0 kHz
Frame rate : 31.250 FPS (1536 SPF)
Bit depth : 16 bits
Compression mode : Lossy
Stream size : 112 MiB (7%)
Alignment : Split accross interleaves
Interleave, duration : 40 ms (1.00 video frame)
Interleave, preload duratio : 500 ms
Service kind : Complete Main
Audio #2
ID : 2
Format : AC-3
Format/Info : Audio Coding 3
Codec ID : 2000
Duration : 1 h 21 min
Bit rate mode : Constant
Bit rate : 192 kb/s
Channel(s) : 2 channels
Channel positions : Front: L R
Sampling rate : 48.0 kHz
Frame rate : 31.250 FPS (1536 SPF)
Bit depth : 16 bits
Compression mode : Lossy
Stream size : 112 MiB (7%)
Alignment : Split accross interleaves
Interleave, duration : 40 ms (1.00 video frame)
Interleave, preload duratio : 500 ms
Service kind : Complete Main

Скриншоты


[opentorrent.pro].t3662.torrent 
Торрент: Зарегистрирован [ 2019-06-15 16:09 ] · 8F7133769905FD9F206E984CD1131BB736AFDDAE

Скачать .torrent

Скачать

15 KB

Статус: проверено
Скачан: 0 раз
Размер: 1,48 GB  ·  Тип торрента
terms.php
Профиль [ЛС]
Показать сообщения:    

Текущее время: 12-Авг 08:50

Часовой пояс: UTC ± 0



Вы не можете начинать темы
Вы не можете отвечать на сообщения
Вы не можете редактировать свои сообщения
Вы не можете удалять свои сообщения
Вы не можете голосовать в опросах
Вы не можете прикреплять файлы к сообщениям
Вы можете скачивать файлы